  0
SECTION
  2
HEADER
  9
$ACADVER
  1
AC1015
  9
$ACADMAINTVER
 70
     6
  9
$DWGCODEPAGE
  3
ANSI_932
  9
$INSBASE
 10
0.0
 20
0.0
 30
0.0
  9
$EXTMIN
 10
-127.5
 20
-116.4812066206269
 30
-0.00000001
  9
$EXTMAX
 10
130.6524241381924
 20
30.60134105292338
 30
0.00000001
  9
$LIMMIN
 10
0.0
 20
0.0
  9
$LIMMAX
 10
12.0
 20
9.0
  9
$ORTHOMODE
 70
     1
  9
$REGENMODE
 70
     1
  9
$FILLMODE
 70
     1
  9
$QTEXTMODE
 70
     0
  9
$MIRRTEXT
 70
     1
  9
$LTSCALE
 40
10.0
  9
$ATTMODE
 70
     1
  9
$TEXTSIZE
 40
0.2
  9
$TRACEWID
 40
0.05
  9
$TEXTSTYLE
  7
Standard
  9
$CLAYER
  8
0
  9
$CELTYPE
  6
ByLayer
  9
$CECOLOR
 62
     5
  9
$CELTSCALE
 40
1.0
  9
$DISPSILH
 70
     0
  9
$DIMSCALE
 40
1.0
  9
$DIMASZ
 40
1.5
  9
$DIMEXO
 40
0.5
  9
$DIMDLI
 40
0.38
  9
$DIMRND
 40
0.0
  9
$DIMDLE
 40
0.0
  9
$DIMEXE
 40
0.5
  9
$DIMTP
 40
0.0
  9
$DIMTM
 40
0.0
  9
$DIMTXT
 40
2.5
  9
$DIMCEN
 40
0.09
  9
$DIMTSZ
 40
0.0
  9
$DIMTOL
 70
     0
  9
$DIMLIM
 70
     0
  9
$DIMTIH
 70
     0
  9
$DIMTOH
 70
     0
  9
$DIMSE1
 70
     0
  9
$DIMSE2
 70
     0
  9
$DIMTAD
 70
     0
  9
$DIMZIN
 70
     0
  9
$DIMBLK
  1

  9
$DIMASO
 70
     1
  9
$DIMSHO
 70
     1
  9
$DIMPOST
  1

  9
$DIMAPOST
  1

  9
$DIMALT
 70
     0
  9
$DIMALTD
 70
     2
  9
$DIMALTF
 40
25.4
  9
$DIMLFAC
 40
1.0
  9
$DIMTOFL
 70
     0
  9
$DIMTVP
 40
0.0
  9
$DIMTIX
 70
     0
  9
$DIMSOXD
 70
     0
  9
$DIMSAH
 70
     0
  9
$DIMBLK1
  1

  9
$DIMBLK2
  1

  9
$DIMSTYLE
  2
Standard
  9
$DIMCLRD
 70
     0
  9
$DIMCLRE
 70
     0
  9
$DIMCLRT
 70
     0
  9
$DIMTFAC
 40
1.0
  9
$DIMGAP
 40
0.5
  9
$DIMJUST
 70
     0
  9
$DIMSD1
 70
     0
  9
$DIMSD2
 70
     0
  9
$DIMTOLJ
 70
     1
  9
$DIMTZIN
 70
     0
  9
$DIMALTZ
 70
     0
  9
$DIMALTTZ
 70
     0
  9
$DIMUPT
 70
     0
  9
$DIMDEC
 70
     1
  9
$DIMTDEC
 70
     1
  9
$DIMALTU
 70
     2
  9
$DIMALTTD
 70
     2
  9
$DIMTXSTY
  7
Standard
  9
$DIMAUNIT
 70
     0
  9
$DIMADEC
 70
     0
  9
$DIMALTRND
 40
0.0
  9
$DIMAZIN
 70
     0
  9
$DIMDSEP
 70
    46
  9
$DIMATFIT
 70
     3
  9
$DIMFRAC
 70
     0
  9
$DIMLDRBLK
  1

  9
$DIMLUNIT
 70
     2
  9
$DIMLWD
 70
    -2
  9
$DIMLWE
 70
    -2
  9
$DIMTMOVE
 70
     0
  9
$LUNITS
 70
     2
  9
$LUPREC
 70
     4
  9
$SKETCHINC
 40
0.1
  9
$FILLETRAD
 40
0.0
  9
$AUNITS
 70
     0
  9
$AUPREC
 70
     0
  9
$MENU
  1
.
  9
$ELEVATION
 40
0.0
  9
$PELEVATION
 40
0.0
  9
$THICKNESS
 40
0.0
  9
$LIMCHECK
 70
     0
  9
$CHAMFERA
 40
0.2
  9
$CHAMFERB
 40
0.2
  9
$CHAMFERC
 40
0.0
  9
$CHAMFERD
 40
0.0
  9
$SKPOLY
 70
     0
  9
$TDCREATE
 40
2454336.657589699
  9
$TDUCREATE
 40
2454336.282589699
  9
$TDUPDATE
 40
2458999.677601655
  9
$TDUUPDATE
 40
2458999.302601655
  9
$TDINDWG
 40
0.3317602546
  9
$TDUSRTIMER
 40
0.3317602546
  9
$USRTIMER
 70
     1
  9
$ANGBASE
 50
0.0
  9
$ANGDIR
 70
     0
  9
$PDMODE
 70
     0
  9
$PDSIZE
 40
0.0
  9
$PLINEWID
 40
0.0
  9
$SPLFRAME
 70
     0
  9
$SPLINETYPE
 70
     6
  9
$SPLINESEGS
 70
     8
  9
$HANDSEED
  5
19BE
  9
$SURFTAB1
 70
     6
  9
$SURFTAB2
 70
     6
  9
$SURFTYPE
 70
     6
  9
$SURFU
 70
     6
  9
$SURFV
 70
     6
  9
$UCSBASE
  2

  9
$UCSNAME
  2

  9
$UCSORG
 10
0.0
 20
0.0
 30
0.0
  9
$UCSXDIR
 10
1.0
 20
0.0
 30
0.0
  9
$UCSYDIR
 10
0.0
 20
1.0
 30
0.0
  9
$UCSORTHOREF
  2

  9
$UCSORTHOVIEW
 70
     0
  9
$UCSORGTOP
 10
0.0
 20
0.0
 30
0.0
  9
$UCSORGBOTTOM
 10
0.0
 20
0.0
 30
0.0
  9
$UCSORGLEFT
 10
0.0
 20
0.0
 30
0.0
  9
$UCSORGRIGHT
 10
0.0
 20
0.0
 30
0.0
  9
$UCSORGFRONT
 10
0.0
 20
0.0
 30
0.0
  9
$UCSORGBACK
 10
0.0
 20
0.0
 30
0.0
  9
$PUCSBASE
  2

  9
$PUCSNAME
  2

  9
$PUCSORG
 10
0.0
 20
0.0
 30
0.0
  9
$PUCSXDIR
 10
1.0
 20
0.0
 30
0.0
  9
$PUCSYDIR
 10
0.0
 20
1.0
 30
0.0
  9
$PUCSORTHOREF
  2

  9
$PUCSORTHOVIEW
 70
     0
  9
$PUCSORGTOP
 10
0.0
 20
0.0
 30
0.0
  9
$PUCSORGBOTTOM
 10
0.0
 20
0.0
 30
0.0
  9
$PUCSORGLEFT
 10
0.0
 20
0.0
 30
0.0
  9
$PUCSORGRIGHT
 10
0.0
 20
0.0
 30
0.0
  9
$PUCSORGFRONT
 10
0.0
 20
0.0
 30
0.0
  9
$PUCSORGBACK
 10
0.0
 20
0.0
 30
0.0
  9
$USERI1
 70
     0
  9
$USERI2
 70
     0
  9
$USERI3
 70
     0
  9
$USERI4
 70
     0
  9
$USERI5
 70
     0
  9
$USERR1
 40
0.0
  9
$USERR2
 40
0.0
  9
$USERR3
 40
0.0
  9
$USERR4
 40
0.0
  9
$USERR5
 40
0.0
  9
$WORLDVIEW
 70
     1
  9
$SHADEDGE
 70
     3
  9
$SHADEDIF
 70
    70
  9
$TILEMODE
 70
     1
  9
$MAXACTVP
 70
    64
  9
$PINSBASE
 10
0.0
 20
0.0
 30
0.0
  9
$PLIMCHECK
 70
     0
  9
$PEXTMIN
 10
1.000000000000000E+20
 20
1.000000000000000E+20
 30
1.000000000000000E+20
  9
$PEXTMAX
 10
-1.000000000000000E+20
 20
-1.000000000000000E+20
 30
-1.000000000000000E+20
  9
$PLIMMIN
 10
0.0
 20
0.0
  9
$PLIMMAX
 10
12.0
 20
9.0
  9
$UNITMODE
 70
     0
  9
$VISRETAIN
 70
     1
  9
$PLINEGEN
 70
     0
  9
$PSLTSCALE
 70
     1
  9
$TREEDEPTH
 70
  3020
  9
$CMLSTYLE
  2
Standard
  9
$CMLJUST
 70
     0
  9
$CMLSCALE
 40
1.0
  9
$PROXYGRAPHICS
 70
     1
  9
$MEASUREMENT
 70
     0
  9
$CELWEIGHT
370
    -1
  9
$ENDCAPS
280
     0
  9
$JOINSTYLE
280
     0
  9
$LWDISPLAY
290
     0
  9
$INSUNITS
 70
     0
  9
$HYPERLINKBASE
  1

  9
$STYLESHEET
  1

  9
$XEDIT
290
     1
  9
$CEPSNTYPE
380
     0
  9
$PSTYLEMODE
290
     1
  9
$FINGERPRINTGUID
  2
{0501F8A3-CC91-48ED-AC34-D38B8D3608C2}
  9
$VERSIONGUID
  2
{E609F4A7-A3B4-47BD-ACA4-700F05C86EB7}
  9
$EXTNAMES
290
     1
  9
$PSVPSCALE
 40
0.0
  9
$OLESTARTUP
290
     0
  0
ENDSEC
  0
SECTION
  2
CLASSES
  0
CLASS
  1
ACDBDICTIONARYWDFLT
  2
AcDbDictionaryWithDefault
  3
AutoCAD 2000
 90
        0
280
     0
281
     0
  0
CLASS
  1
ACDBPLACEHOLDER
  2
AcDbPlaceHolder
  3
AutoCAD 2000
 90
        0
280
     0
281
     0
  0
CLASS
  1
LAYOUT
  2
AcDbLayout
  3
AutoCAD 2000
 90
        0
280
     0
281
     0
  0
CLASS
  1
DICTIONARYVAR
  2
AcDbDictionaryVar
  3
AutoCAD 2000
 90
        0
280
     0
281
     0
  0
ENDSEC
  0
SECTION
  2
TABLES
  0
TABLE
  2
VPORT
  5
8
330
0
100
AcDbSymbolTable
 70
     2
  0
VPORT
  5
19BD
330
8
100
AcDbSymbolTableRecord
100
AcDbViewportTableRecord
  2
*Active
 70
     0
 10
0.0
 20
0.0
 11
1.0
 21
1.0
 12
1.573945705534072
 22
-42.93755340803193
 13
0.0
 23
0.0
 14
1.0
 24
1.0
 15
0.0
 25
0.0
 16
0.0
 26
0.0
 36
1.0
 17
0.0
 27
0.0
 37
0.0
 40
168.3022364952794
 41
1.541613316261203
 42
50.0
 43
0.0
 44
0.0
 50
0.0
 51
0.0
 71
     0
 72
   100
 73
     1
 74
     2
 75
     0
 76
     0
 77
     0
 78
     0
281
     0
 65
     1
110
0.0
120
0.0
130
0.0
111
1.0
121
0.0
131
0.0
112
0.0
122
1.0
132
0.0
 79
     0
146
0.0
  0
ENDTAB
  0
TABLE
  2
LTYPE
  5
5
330
0
100
AcDbSymbolTable
 70
     3
  0
LTYPE
  5
13
330
5
100
AcDbSymbolTableRecord
100
AcDbLinetypeTableRecord
  2
ByBlock
 70
     0
  3

 72
    65
 73
     0
 40
0.0
  0
LTYPE
  5
14
330
5
100
AcDbSymbolTableRecord
100
AcDbLinetypeTableRecord
  2
ByLayer
 70
     0
  3

 72
    65
 73
     0
 40
0.0
  0
LTYPE
  5
15
330
5
100
AcDbSymbolTableRecord
100
AcDbLinetypeTableRecord
  2
Continuous
 70
     0
  3
Solid line
 72
    65
 73
     0
 40
0.0
  0
LTYPE
  5
7CE
330
5
100
AcDbSymbolTableRecord
100
AcDbLinetypeTableRecord
  2
CENTER2
 70
     0
  3
Center (.5x) ___ _ ___ _ ___ _ ___ _ ___ _ ___
 72
    65
 73
     4
 40
1.125
 49
0.75
 74
     0
 49
-0.125
 74
     0
 49
0.125
 74
     0
 49
-0.125
 74
     0
  0
LTYPE
  5
1564
330
5
100
AcDbSymbolTableRecord
100
AcDbLinetypeTableRecord
  2
HIDDEN2
 70
     0
  3
Hidden (.5x) _ _ _ _ _ _ _ _ _ _ _ _ _ _ _ _ _
 72
    65
 73
     2
 40
0.1875
 49
0.125
 74
     0
 49
-0.0625
 74
     0
  0
ENDTAB
  0
TABLE
  2
LAYER
  5
2
330
0
100
AcDbSymbolTable
 70
     6
  0
LAYER
  5
10
330
2
100
AcDbSymbolTableRecord
100
AcDbLayerTableRecord
  2
0
 70
     0
 62
     7
  6
Continuous
370
    -3
390
F
  0
LAYER
  5
9C
330
2
100
AcDbSymbolTableRecord
100
AcDbLayerTableRecord
  2
Defpoints
 70
     0
 62
     7
  6
Continuous
290
     0
370
    -3
390
F
  0
LAYER
  5
1357
330
2
100
AcDbSymbolTableRecord
100
AcDbLayerTableRecord
  2
BASE
 70
     0
 62
     7
  6
Continuous
370
    -3
390
F
  0
LAYER
  5
1570
330
2
100
AcDbSymbolTableRecord
100
AcDbLayerTableRecord
  2
ﾌﾗﾝｼﾞ
 70
     0
 62
     7
  6
Continuous
370
    -3
390
F
  0
LAYER
  5
16E7
330
2
100
AcDbSymbolTableRecord
100
AcDbLayerTableRecord
  2
ﾊｯﾁﾝｸﾞ
 70
     0
 62
     7
  6
Continuous
370
    -3
390
F
  0
LAYER
  5
16EE
330
2
100
AcDbSymbolTableRecord
100
AcDbLayerTableRecord
  2
ｽﾌﾟﾘﾝｸﾞ
 70
     0
 62
     7
  6
Continuous
370
    -3
390
F
  0
ENDTAB
  0
TABLE
  2
STYLE
  5
3
330
0
100
AcDbSymbolTable
 70
     2
  0
STYLE
  5
11
330
3
100
AcDbSymbolTableRecord
100
AcDbTextStyleTableRecord
  2
Standard
 70
     0
 40
0.0
 41
1.0
 50
0.0
 71
     0
 42
0.2
  3
txt
  4

  0
STYLE
  5
1562
330
3
100
AcDbSymbolTableRecord
100
AcDbTextStyleTableRecord
  2

 70
     1
 40
0.0
 41
1.0
 50
0.0
 71
     0
 42
0.2
  3
ltypeshp.shx
  4

  0
ENDTAB
  0
TABLE
  2
VIEW
  5
6
330
0
100
AcDbSymbolTable
 70
     0
  0
ENDTAB
  0
TABLE
  2
UCS
  5
7
330
0
100
AcDbSymbolTable
 70
     0
  0
ENDTAB
  0
TABLE
  2
APPID
  5
9
330
0
100
AcDbSymbolTable
 70
     1
  0
APPID
  5
12
330
9
100
AcDbSymbolTableRecord
100
AcDbRegAppTableRecord
  2
ACAD
 70
     0
  0
ENDTAB
  0
TABLE
  2
DIMSTYLE
  5
A
330
0
100
AcDbSymbolTable
 70
     1
100
AcDbDimStyleTable
 71
     1
340
97
  0
DIMSTYLE
105
97
102
{ACAD_REACTORS
330
F2
330
100
330
10E
330
11C
330
15E
330
169
330
316
330
332
330
4E4
330
514
330
522
330
976
330
A0D
330
A5A
330
A7A
330
B9E
330
BAC
330
BBA
330
BE9
330
C63
330
C7B
330
D07
330
D0E
330
BCA
330
118D
330
EF6
330
F8D
330
1066
330
1143
330
1865
330
1888
330
190F
330
191D
330
192B
330
1936
330
194A
330
1958
330
1985
102
}
330
A
100
AcDbSymbolTableRecord
100
AcDbDimStyleTableRecord
  2
Standard
 70
     0
 41
1.5
 42
0.5
 44
0.5
 73
     0
 74
     0
140
2.5
147
0.5
271
     1
272
     1
340
11
  0
ENDTAB
  0
TABLE
  2
BLOCK_RECORD
  5
1
330
0
100
AcDbSymbolTable
 70
    34
  0
BLOCK_RECORD
  5
1E
330
1
100
AcDbSymbolTableRecord
100
AcDbBlockTableRecord
  2
*Model_Space
340
21
  0
BLOCK_RECORD
  5
1A
330
1
100
AcDbSymbolTableRecord
100
AcDbBlockTableRecord
  2
*Paper_Space
340
1D
  0
BLOCK_RECORD
  5
F3
330
1
100
AcDbSymbolTableRecord
100
AcDbBlockTableRecord
  2
*D0
340
0
  0
BLOCK_RECORD
  5
101
330
1
100
AcDbSymbolTableRecord
100
AcDbBlockTableRecord
  2
*D1
340
0
  0
BLOCK_RECORD
  5
10F
330
1
100
AcDbSymbolTableRecord
100
AcDbBlockTableRecord
  2
*D2
340
0
  0
BLOCK_RECORD
  5
11D
330
1
100
AcDbSymbolTableRecord
100
AcDbBlockTableRecord
  2
*D3
340
0
  0
BLOCK_RECORD
  5
15F
330
1
100
AcDbSymbolTableRecord
100
AcDbBlockTableRecord
  2
*D4
340
0
  0
BLOCK_RECORD
  5
16A
330
1
100
AcDbSymbolTableRecord
100
AcDbBlockTableRecord
  2
*D5
340
0
  0
BLOCK_RECORD
  5
317
330
1
100
AcDbSymbolTableRecord
100
AcDbBlockTableRecord
  2
*D6
340
0
  0
BLOCK_RECORD
  5
333
330
1
100
AcDbSymbolTableRecord
100
AcDbBlockTableRecord
  2
*D7
340
0
  0
BLOCK_RECORD
  5
4E5
330
1
100
AcDbSymbolTableRecord
100
AcDbBlockTableRecord
  2
*D8
340
0
  0
BLOCK_RECORD
  5
515
330
1
100
AcDbSymbolTableRecord
100
AcDbBlockTableRecord
  2
*D9
340
0
  0
BLOCK_RECORD
  5
523
330
1
100
AcDbSymbolTableRecord
100
AcDbBlockTableRecord
  2
*D10
340
0
  0
BLOCK_RECORD
  5
977
330
1
100
AcDbSymbolTableRecord
100
AcDbBlockTableRecord
  2
*D11
340
0
  0
BLOCK_RECORD
  5
A0E
330
1
100
AcDbSymbolTableRecord
100
AcDbBlockTableRecord
  2
*D12
340
0
  0
BLOCK_RECORD
  5
A5B
330
1
100
AcDbSymbolTableRecord
100
AcDbBlockTableRecord
  2
*D13
340
0
  0
BLOCK_RECORD
  5
A7B
330
1
100
AcDbSymbolTableRecord
100
AcDbBlockTableRecord
  2
*D14
340
0
  0
BLOCK_RECORD
  5
B9F
330
1
100
AcDbSymbolTableRecord
100
AcDbBlockTableRecord
  2
*D15
340
0
  0
BLOCK_RECORD
  5
BAD
330
1
100
AcDbSymbolTableRecord
100
AcDbBlockTableRecord
  2
*D16
340
0
  0
BLOCK_RECORD
  5
BBB
330
1
100
AcDbSymbolTableRecord
100
AcDbBlockTableRecord
  2
*D17
340
0
  0
BLOCK_RECORD
  5
BCB
330
1
100
AcDbSymbolTableRecord
100
AcDbBlockTableRecord
  2
*D18
340
0
  0
BLOCK_RECORD
  5
BEA
330
1
100
AcDbSymbolTableRecord
100
AcDbBlockTableRecord
  2
*D19
340
0
  0
BLOCK_RECORD
  5
C64
330
1
100
AcDbSymbolTableRecord
100
AcDbBlockTableRecord
  2
*D20
340
0
  0
BLOCK_RECORD
  5
C7C
330
1
100
AcDbSymbolTableRecord
100
AcDbBlockTableRecord
  2
*D21
340
0
  0
BLOCK_RECORD
  5
D18
330
1
100
AcDbSymbolTableRecord
100
AcDbBlockTableRecord
  2
*D22
340
0
  0
BLOCK_RECORD
  5
D25
330
1
100
AcDbSymbolTableRecord
100
AcDbBlockTableRecord
  2
*D23
340
0
  0
BLOCK_RECORD
  5
118E
330
1
100
AcDbSymbolTableRecord
100
AcDbBlockTableRecord
  2
*D24
340
0
  0
BLOCK_RECORD
  5
1866
330
1
100
AcDbSymbolTableRecord
100
AcDbBlockTableRecord
  2
*D25
340
0
  0
BLOCK_RECORD
  5
1889
330
1
100
AcDbSymbolTableRecord
100
AcDbBlockTableRecord
  2
*D26
340
0
  0
BLOCK_RECORD
  5
1910
330
1
100
AcDbSymbolTableRecord
100
AcDbBlockTableRecord
  2
*D27
340
0
  0
BLOCK_RECORD
  5
191E
330
1
100
AcDbSymbolTableRecord
100
AcDbBlockTableRecord
  2
*D28
340
0
  0
BLOCK_RECORD
  5
192C
330
1
100
AcDbSymbolTableRecord
100
AcDbBlockTableRecord
  2
*D29
340
0
  0
BLOCK_RECORD
  5
1937
330
1
100
AcDbSymbolTableRecord
100
AcDbBlockTableRecord
  2
*D30
340
0
  0
BLOCK_RECORD
  5
194B
330
1
100
AcDbSymbolTableRecord
100
AcDbBlockTableRecord
  2
*D31
340
0
  0
BLOCK_RECORD
  5
1959
330
1
100
AcDbSymbolTableRecord
100
AcDbBlockTableRecord
  2
*D32
340
0
  0
BLOCK_RECORD
  5
1986
330
1
100
AcDbSymbolTableRecord
100
AcDbBlockTableRecord
  2
*D33
340
0
  0
ENDTAB
  0
ENDSEC
  0
SECTION
  2
BLOCKS
  0
BLOCK
  5
1F
330
1E
100
AcDbEntity
  8
0
100
AcDbBlockBegin
  2
*Model_Space
 70
     0
 10
0.0
 20
0.0
 30
0.0
  3
*Model_Space
  1

  0
ENDBLK
  5
20
330
1E
100
AcDbEntity
  8
0
100
AcDbBlockEnd
  0
BLOCK
  5
1B
330
1A
100
AcDbEntity
 67
     1
  8
0
100
AcDbBlockBegin
  2
*Paper_Space
 70
     0
 10
0.0
 20
0.0
 30
0.0
  3
*Paper_Space
  1

  0
ENDBLK
  5
1C
330
1A
100
AcDbEntity
 67
     1
  8
0
100
AcDbBlockEnd
  0
BLOCK
  5
FE
330
F3
100
AcDbEntity
  8
0
100
AcDbBlockBegin
  2
*D0
 70
     1
 10
0.0
 20
0.0
 30
0.0
  3
*D0
  1

  0
LINE
  5
15DB
330
F3
100
AcDbEntity
  8
0
  6
Continuous
 62
     0
370
    -2
100
AcDbLine
 10
31.04999999999999
 20
-42.0
 30
0.0
 11
42.65967717635976
 21
-42.0
 31
0.0
  0
LINE
  5
15DC
330
F3
100
AcDbEntity
  8
0
  6
Continuous
 62
     0
370
    -2
100
AcDbLine
 10
31.04999999999999
 20
-50.0
 30
0.0
 11
42.65967717635975
 21
-50.0
 31
0.0
  0
LINE
  5
15DD
330
F3
100
AcDbEntity
  8
0
  6
Continuous
 62
     0
370
    -2
100
AcDbLine
 10
42.15967717635975
 20
-40.49999999999999
 30
0.0
 11
42.15967717635975
 21
-39.0
 31
0.0
  0
LINE
  5
15DE
330
F3
100
AcDbEntity
  8
0
  6
Continuous
 62
     0
370
    -2
100
AcDbLine
 10
42.15967717635975
 20
-51.50000000000001
 30
0.0
 11
42.15967717635975
 21
-53.0
 31
0.0
  0
SOLID
  5
15DF
330
F3
100
AcDbEntity
  8
0
  6
Continuous
 62
     0
100
AcDbTrace
 10
41.90967717635976
 20
-40.49999999999999
 30
0.0
 11
42.40967717635975
 21
-40.49999999999999
 31
0.0
 12
42.15967717635975
 22
-42.0
 32
0.0
 13
42.15967717635975
 23
-42.0
 33
0.0
  0
SOLID
  5
15E0
330
F3
100
AcDbEntity
  8
0
  6
Continuous
 62
     0
100
AcDbTrace
 10
41.90967717635975
 20
-51.50000000000001
 30
0.0
 11
42.40967717635975
 21
-51.50000000000001
 31
0.0
 12
42.15967717635975
 22
-50.0
 32
0.0
 13
42.15967717635975
 23
-50.0
 33
0.0
  0
MTEXT
  5
15E1
330
F3
100
AcDbEntity
  8
0
  6
Continuous
 62
     0
370
     9
100
AcDbMText
 10
42.15967717635976
 20
-46.0
 30
0.0
 40
2.5
 41
0.0
 71
     5
 72
     1
  1
\A1;8.0
 11
0.0000000000000001
 21
1.0
 31
0.0
 73
     1
 44
1.0
  0
POINT
  5
15E2
330
F3
100
AcDbEntity
  8
Defpoints
  6
Continuous
 62
     0
100
AcDbPoint
 10
30.54999999999999
 20
-42.0
 30
0.0
  0
POINT
  5
15E3
330
F3
100
AcDbEntity
  8
Defpoints
  6
Continuous
 62
     0
100
AcDbPoint
 10
30.54999999999999
 20
-50.0
 30
0.0
  0
POINT
  5
15E4
330
F3
100
AcDbEntity
  8
Defpoints
  6
Continuous
 62
     0
100
AcDbPoint
 10
42.15967717635975
 20
-50.0
 30
0.0
  0
ENDBLK
  5
FF
330
F3
100
AcDbEntity
  8
0
100
AcDbBlockEnd
  0
BLOCK
  5
10C
330
101
100
AcDbEntity
  8
0
100
AcDbBlockBegin
  2
*D1
 70
     1
 10
0.0
 20
0.0
 30
0.0
  3
*D1
  1

  0
LINE
  5
15E5
330
101
100
AcDbEntity
  8
0
  6
Continuous
 62
     0
370
    -2
100
AcDbLine
 10
15.49999999999999
 20
-35.5
 30
0.0
 11
15.49999999999999
 21
-30.83333333333333
 31
0.0
  0
LINE
  5
15E6
330
101
100
AcDbEntity
  8
0
  6
Continuous
 62
     0
370
    -2
100
AcDbLine
 10
15.5
 20
-18.5
 30
0.0
 11
15.49999999999999
 21
-23.16666666666667
 31
0.0
  0
SOLID
  5
15E7
330
101
100
AcDbEntity
  8
0
  6
Continuous
 62
     0
100
AcDbTrace
 10
15.24999999999999
 20
-35.5
 30
0.0
 11
15.74999999999999
 21
-35.5
 31
0.0
 12
15.49999999999999
 22
-37.0
 32
0.0
 13
15.49999999999999
 23
-37.0
 33
0.0
  0
SOLID
  5
15E8
330
101
100
AcDbEntity
  8
0
  6
Continuous
 62
     0
100
AcDbTrace
 10
15.25
 20
-18.5
 30
0.0
 11
15.75
 21
-18.5
 31
0.0
 12
15.5
 22
-17.0
 32
0.0
 13
15.5
 23
-17.0
 33
0.0
  0
MTEXT
  5
15E9
330
101
100
AcDbEntity
  8
0
  6
Continuous
 62
     0
370
     9
100
AcDbMText
 10
15.5
 20
-27.0
 30
0.0
 40
2.5
 41
0.0
 71
     5
 72
     1
  1
\A1;20.0
 11
0.0000000000000001
 21
1.0
 31
0.0
 73
     1
 44
1.0
  0
POINT
  5
15EA
330
101
100
AcDbEntity
  8
Defpoints
  6
Continuous
 62
     0
100
AcDbPoint
 10
15.5
 20
-37.0
 30
0.0
  0
POINT
  5
15EB
330
101
100
AcDbEntity
  8
Defpoints
  6
Continuous
 62
     0
100
AcDbPoint
 10
15.5
 20
-17.0
 30
0.0
  0
POINT
  5
15EC
330
101
100
AcDbEntity
  8
Defpoints
  6
Continuous
 62
     0
100
AcDbPoint
 10
15.5
 20
-17.0
 30
0.0
  0
ENDBLK
  5
10D
330
101
100
AcDbEntity
  8
0
100
AcDbBlockEnd
  0
BLOCK
  5
11A
330
10F
100
AcDbEntity
  8
0
100
AcDbBlockBegin
  2
*D2
 70
     1
 10
0.0
 20
0.0
 30
0.0
  3
*D2
  1

  0
LINE
  5
15ED
330
10F
100
AcDbEntity
  8
0
  6
Continuous
 62
     0
370
    -2
100
AcDbLine
 10
-1.771848866923626
 20
-40.49999999999999
 30
0.0
 11
-1.771848866923624
 21
-30.83333333333333
 31
0.0
  0
LINE
  5
15EE
330
10F
100
AcDbEntity
  8
0
  6
Continuous
 62
     0
370
    -2
100
AcDbLine
 10
-1.771848866923621
 20
-13.5
 30
0.0
 11
-1.771848866923622
 21
-23.16666666666666
 31
0.0
  0
SOLID
  5
15EF
330
10F
100
AcDbEntity
  8
0
  6
Continuous
 62
     0
100
AcDbTrace
 10
-2.021848866923626
 20
-40.49999999999999
 30
0.0
 11
-1.521848866923626
 21
-40.49999999999999
 31
0.0
 12
-1.771848866923627
 22
-42.0
 32
0.0
 13
-1.771848866923627
 23
-42.0
 33
0.0
  0
SOLID
  5
15F0
330
10F
100
AcDbEntity
  8
0
  6
Continuous
 62
     0
100
AcDbTrace
 10
-2.02184886692362
 20
-13.5
 30
0.0
 11
-1.521848866923621
 21
-13.5
 31
0.0
 12
-1.77184886692362
 22
-12.0
 32
0.0
 13
-1.77184886692362
 23
-12.0
 33
0.0
  0
MTEXT
  5
15F1
330
10F
100
AcDbEntity
  8
0
  6
Continuous
 62
     0
370
     9
100
AcDbMText
 10
-1.771848866923619
 20
-27.0
 30
0.0
 40
2.5
 41
0.0
 71
     5
 72
     1
  1
\A1;30.0
 11
0.0000000000000001
 21
1.0
 31
0.0
 73
     1
 44
1.0
  0
POINT
  5
15F2
330
10F
100
AcDbEntity
  8
Defpoints
  6
Continuous
 62
     0
100
AcDbPoint
 10
-1.771848866923627
 20
-42.0
 30
0.0
  0
POINT
  5
15F3
330
10F
100
AcDbEntity
  8
Defpoints
  6
Continuous
 62
     0
100
AcDbPoint
 10
-1.77184886692362
 20
-12.0
 30
0.0
  0
POINT
  5
15F4
330
10F
100
AcDbEntity
  8
Defpoints
  6
Continuous
 62
     0
100
AcDbPoint
 10
-1.77184886692362
 20
-12.0
 30
0.0
  0
ENDBLK
  5
11B
330
10F
100
AcDbEntity
  8
0
100
AcDbBlockEnd
  0
BLOCK
  5
128
330
11D
100
AcDbEntity
  8
0
100
AcDbBlockBegin
  2
*D3
 70
     1
 10
0.0
 20
0.0
 30
0.0
  3
*D3
  1

  0
LINE
  5
15F5
330
11D
100
AcDbEntity
  8
0
  6
Continuous
 62
     0
370
    -2
100
AcDbLine
 10
11.47701356972758
 20
-90.00000000000001
 30
0.0
 11
11.65701356972758
 21
-90.00000000000001
 31
0.0
  0
LINE
  5
15F6
330
11D
100
AcDbEntity
  8
0
  6
Continuous
 62
     0
370
    -2
100
AcDbLine
 10
11.15701356972758
 20
-88.50000000000001
 30
0.0
 11
11.15701356972759
 21
-69.25218546508618
 31
0.0
  0
LINE
  5
15F7
330
11D
100
AcDbEntity
  8
0
  6
Continuous
 62
     0
370
    -2
100
AcDbLine
 10
11.1570135697276
 20
-28.5
 30
0.0
 11
11.15701356972759
 21
-61.16885213175285
 31
0.0
  0
SOLID
  5
15F8
330
11D
100
AcDbEntity
  8
0
  6
Continuous
 62
     0
100
AcDbTrace
 10
10.90701356972758
 20
-88.50000000000001
 30
0.0
 11
11.40701356972758
 21
-88.50000000000001
 31
0.0
 12
11.15701356972758
 22
-90.00000000000001
 32
0.0
 13
11.15701356972758
 23
-90.00000000000001
 33
0.0
  0
SOLID
  5
15F9
330
11D
100
AcDbEntity
  8
0
  6
Continuous
 62
     0
100
AcDbTrace
 10
10.90701356972759
 20
-28.5
 30
0.0
 11
11.40701356972759
 21
-28.5
 31
0.0
 12
11.1570135697276
 22
-27.0
 32
0.0
 13
11.1570135697276
 23
-27.0
 33
0.0
  0
MTEXT
  5
15FA
330
11D
100
AcDbEntity
  8
0
  6
Continuous
 62
     0
370
     9
100
AcDbMText
 10
11.1570135697276
 20
-65.21051879841952
 30
0.0
 40
2.5
 41
0.0
 71
     5
 72
     1
  1
\A1;63.0
 11
0.0000000000000001
 21
1.0
 31
0.0
 73
     1
 44
1.0
  0
POINT
  5
15FB
330
11D
100
AcDbEntity
  8
Defpoints
  6
Continuous
 62
     0
100
AcDbPoint
 10
10.97701356972758
 20
-90.00000000000001
 30
0.0
  0
POINT
  5
15FC
330
11D
100
AcDbEntity
  8
Defpoints
  6
Continuous
 62
     0
100
AcDbPoint
 10
11.1570135697276
 20
-27.0
 30
0.0
  0
POINT
  5
15FD
330
11D
100
AcDbEntity
  8
Defpoints
  6
Continuous
 62
     0
100
AcDbPoint
 10
11.1570135697276
 20
-27.0
 30
0.0
  0
ENDBLK
  5
129
330
11D
100
AcDbEntity
  8
0
100
AcDbBlockEnd
  0
BLOCK
  5
167
330
15F
100
AcDbEntity
  8
0
100
AcDbBlockBegin
  2
*D4
 70
     1
 10
0.0
 20
0.0
 30
0.0
  3
*D4
  1

  0
LINE
  5
15FE
330
15F
100
AcDbEntity
  8
0
  6
Continuous
 62
     0
370
    -2
100
AcDbLine
 10
77.73444667785738
 20
-31.35224989500185
 30
0.0
 11
76.28331750839304
 21
-31.73201842125139
 31
0.0
  0
MTEXT
  5
15FF
330
15F
100
AcDbEntity
  8
0
  6
Continuous
 62
     0
370
     9
100
AcDbMText
 10
81.64443360669183
 20
-30.32898469927392
 30
0.0
 40
2.5
 41
0.0
 71
     5
 72
     1
  1
\A1;\U+22056.0
 11
0.9674194463095572
 21
0.2531790174996928
 31
0.0
 73
     1
 44
1.0
  0
SOLID
  5
1600
330
15F
100
AcDbEntity
  8
0
  6
Continuous
 62
     0
100
AcDbTrace
 10
76.22002275401811
 20
-31.490163559674
 30
0.0
 11
76.34661226276796
 21
-31.97387328282878
 31
0.0
 12
74.8321883389287
 22
-32.11178694750093
 32
0.0
 13
74.8321883389287
 23
-32.11178694750093
 33
0.0
  0
LINE
  5
1601
330
15F
100
AcDbEntity
  8
0
  6
Continuous
 62
     0
370
    -2
100
AcDbLine
 10
71.83993
 20
-32.87132400000001
 30
0.0
 11
72.01993000000001
 21
-32.87132400000001
 31
0.0
  0
LINE
  5
1602
330
15F
100
AcDbEntity
  8
0
  6
Continuous
 62
     0
370
    -2
100
AcDbLine
 10
71.92993000000001
 20
-32.96132400000002
 30
0.0
 11
71.92993000000001
 21
-32.78132400000001
 31
0.0
  0
POINT
  5
1603
330
15F
100
AcDbEntity
  8
Defpoints
  6
Continuous
 62
     0
100
AcDbPoint
 10
74.8321883389287
 20
-32.11178694750093
 30
0.0
  0
POINT
  5
1604
330
15F
100
AcDbEntity
  8
Defpoints
  6
Continuous
 62
     0
100
AcDbPoint
 10
69.02767166107134
 20
-33.63086105249909
 30
0.0
  0
ENDBLK
  5
168
330
15F
100
AcDbEntity
  8
0
100
AcDbBlockEnd
  0
BLOCK
  5
173
330
16A
100
AcDbEntity
  8
0
100
AcDbBlockBegin
  2
*D5
 70
     1
 10
0.0
 20
0.0
 30
0.0
  3
*D5
  1

  0
LINE
  5
1605
330
16A
100
AcDbEntity
  8
0
  6
Continuous
 62
     0
370
    -2
100
AcDbLine
 10
102.6389421979242
 20
-52.44391178763653
 30
0.0
 11
99.62810051574486
 21
-50.50096024025717
 31
0.0
  0
MTEXT
  5
1606
330
16A
100
AcDbEntity
  8
0
  6
Continuous
 62
     0
370
     9
100
AcDbMText
 10
106.0348980733027
 20
-54.63538461131631
 30
0.0
 40
2.5
 41
0.0
 71
     5
 72
     1
  1
\A1;\U+22053.0
 11
0.8402365052482744
 21
-0.5422200800857218
 31
0.0
 73
     1
 44
1.0
  0
SOLID
  5
1607
330
16A
100
AcDbEntity
  8
0
  6
Continuous
 62
     0
100
AcDbTrace
 10
99.76365553576629
 20
-50.2909011139451
 30
0.0
 11
99.49254549572343
 21
-50.71101936656924
 31
0.0
 12
98.36774575787243
 22
-49.68763012012859
 32
0.0
 13
98.36774575787243
 23
-49.68763012012859
 33
0.0
  0
LINE
  5
1608
330
16A
100
AcDbEntity
  8
0
  6
Continuous
 62
     0
370
    -2
100
AcDbLine
 10
97.01739100000001
 20
-48.87430000000001
 30
0.0
 11
97.19739100000001
 21
-48.8743
 31
0.0
  0
LINE
  5
1609
330
16A
100
AcDbEntity
  8
0
  6
Continuous
 62
     0
370
    -2
100
AcDbLine
 10
97.10739100000001
 20
-48.96430000000001
 30
0.0
 11
97.10739100000001
 21
-48.78430000000001
 31
0.0
  0
POINT
  5
160A
330
16A
100
AcDbEntity
  8
Defpoints
  6
Continuous
 62
     0
100
AcDbPoint
 10
98.36774575787243
 20
-49.68763012012859
 30
0.0
  0
POINT
  5
160B
330
16A
100
AcDbEntity
  8
Defpoints
  6
Continuous
 62
     0
100
AcDbPoint
 10
95.8470362421276
 20
-48.06096987987142
 30
0.0
  0
ENDBLK
  5
174
330
16A
100
AcDbEntity
  8
0
100
AcDbBlockEnd
  0
BLOCK
  5
322
330
317
100
AcDbEntity
  8
0
 62
     1
100
AcDbBlockBegin
  2
*D6
 70
     1
 10
0.0
 20
0.0
 30
0.0
  3
*D6
  1

  0
LINE
  5
160C
330
317
100
AcDbEntity
  8
0
  6
Continuous
 62
     0
370
    -2
100
AcDbLine
 10
-7.069999999999993
 20
-11.5
 30
0.0
 11
-7.069999999999992
 21
3.924338511130937
 31
0.0
  0
LINE
  5
160D
330
317
100
AcDbEntity
  8
0
  6
Continuous
 62
     0
370
    -2
100
AcDbLine
 10
0.000000000000001
 20
0.5000000000000036
 30
0.0
 11
0.0000000000000012
 21
3.924338511130937
 31
0.0
  0
LINE
  5
160E
330
317
100
AcDbEntity
  8
0
  6
Continuous
 62
     0
370
    -2
100
AcDbLine
 10
-5.569999999999992
 20
3.424338511130937
 30
0.0
 11
-1.499999999999998
 21
3.424338511130937
 31
0.0
  0
LINE
  5
160F
330
317
100
AcDbEntity
  8
0
  6
Continuous
 62
     0
370
    -2
100
AcDbLine
 10
0.0000000000000012
 20
3.424338511130937
 30
0.0
 11
1.5
 21
3.424338511130937
 31
0.0
  0
SOLID
  5
1610
330
317
100
AcDbEntity
  8
0
  6
Continuous
 62
     0
100
AcDbTrace
 10
-5.569999999999992
 20
3.674338511130937
 30
0.0
 11
-5.569999999999992
 21
3.174338511130937
 31
0.0
 12
-7.069999999999992
 22
3.424338511130937
 32
0.0
 13
-7.069999999999992
 23
3.424338511130937
 33
0.0
  0
SOLID
  5
1611
330
317
100
AcDbEntity
  8
0
  6
Continuous
 62
     0
100
AcDbTrace
 10
-1.499999999999998
 20
3.674338511130937
 30
0.0
 11
-1.499999999999998
 21
3.174338511130937
 31
0.0
 12
0.0000000000000012
 22
3.424338511130937
 32
0.0
 13
0.0000000000000012
 23
3.424338511130937
 33
0.0
  0
MTEXT
  5
1612
330
317
100
AcDbEntity
  8
0
  6
Continuous
 62
     0
370
     9
100
AcDbMText
 10
5.541666666666666
 20
3.424338511130937
 30
0.0
 40
2.5
 41
0.0
 71
     5
 72
     1
  1
\A1;7.07
 73
     1
 44
1.0
  0
POINT
  5
1613
330
317
100
AcDbEntity
  8
Defpoints
  6
Continuous
 62
     0
100
AcDbPoint
 10
-7.069999999999993
 20
-12.0
 30
0.0
  0
POINT
  5
1614
330
317
100
AcDbEntity
  8
Defpoints
  6
Continuous
 62
     0
100
AcDbPoint
 10
0.000000000000001
 20
0.0000000000000036
 30
0.0
  0
POINT
  5
1615
330
317
100
AcDbEntity
  8
Defpoints
  6
Continuous
 62
     0
100
AcDbPoint
 10
0.0000000000000012
 20
3.424338511130937
 30
0.0
  0
ENDBLK
  5
323
330
317
100
AcDbEntity
  8
0
 62
     1
100
AcDbBlockEnd
  0
BLOCK
  5
33E
330
333
100
AcDbEntity
  8
0
 62
     1
100
AcDbBlockBegin
  2
*D7
 70
     1
 10
0.0
 20
0.0
 30
0.0
  3
*D7
  1

  0
LINE
  5
16DB
330
333
100
AcDbEntity
  8
0
 62
     0
370
    -2
100
AcDbLine
 10
30.5
 20
-4.154390401797915
 30
0.0
 11
30.5
 21
3.924338511130937
 31
0.0
  0
LINE
  5
16DC
330
333
100
AcDbEntity
  8
0
 62
     0
370
    -2
100
AcDbLine
 10
38.5
 20
-5.154390401797915
 30
0.0
 11
38.5
 21
3.924338511130937
 31
0.0
  0
LINE
  5
16DD
330
333
100
AcDbEntity
  8
0
 62
     0
370
    -2
100
AcDbLine
 10
29.0
 20
3.424338511130937
 30
0.0
 11
27.5
 21
3.424338511130937
 31
0.0
  0
LINE
  5
16DE
330
333
100
AcDbEntity
  8
0
 62
     0
370
    -2
100
AcDbLine
 10
40.0
 20
3.424338511130937
 30
0.0
 11
41.5
 21
3.424338511130937
 31
0.0
  0
SOLID
  5
16DF
330
333
100
AcDbEntity
  8
0
 62
     0
100
AcDbTrace
 10
29.0
 20
3.674338511130937
 30
0.0
 11
29.0
 21
3.174338511130937
 31
0.0
 12
30.5
 22
3.424338511130937
 32
0.0
 13
30.5
 23
3.424338511130937
 33
0.0
  0
SOLID
  5
16E0
330
333
100
AcDbEntity
  8
0
 62
     0
100
AcDbTrace
 10
40.0
 20
3.674338511130937
 30
0.0
 11
40.0
 21
3.174338511130937
 31
0.0
 12
38.5
 22
3.424338511130937
 32
0.0
 13
38.5
 23
3.424338511130937
 33
0.0
  0
MTEXT
  5
16E1
330
333
100
AcDbEntity
  8
0
 62
     0
370
    15
100
AcDbMText
 10
34.5
 20
3.424338511130937
 30
0.0
 40
2.5
 41
0.0
 71
     5
 72
     1
  1
\A1;8.0
 73
     1
 44
1.0
  0
POINT
  5
16E2
330
333
100
AcDbEntity
  8
Defpoints
 62
     0
100
AcDbPoint
 10
30.5
 20
-4.654390401797915
 30
0.0
  0
POINT
  5
16E3
330
333
100
AcDbEntity
  8
Defpoints
 62
     0
100
AcDbPoint
 10
38.5
 20
-5.654390401797915
 30
0.0
  0
POINT
  5
16E4
330
333
100
AcDbEntity
  8
Defpoints
 62
     0
100
AcDbPoint
 10
38.5
 20
3.424338511130937
 30
0.0
  0
ENDBLK
  5
33F
330
333
100
AcDbEntity
  8
0
 62
     1
100
AcDbBlockEnd
  0
BLOCK
  5
4F0
330
4E5
100
AcDbEntity
  8
0
 62
     4
100
AcDbBlockBegin
  2
*D8
 70
     1
 10
0.0
 20
0.0
 30
0.0
  3
*D8
  1

  0
LINE
  5
1620
330
4E5
100
AcDbEntity
  8
0
  6
Continuous
 62
     0
370
    -2
100
AcDbLine
 10
38.5
 20
-0.5000000000000036
 30
0.0
 11
38.5
 21
3.987485756547638
 31
0.0
  0
LINE
  5
1621
330
4E5
100
AcDbEntity
  8
0
  6
Continuous
 62
     0
370
    -2
100
AcDbLine
 10
42.99999999999999
 20
0.4999999999999965
 30
0.0
 11
42.99999999999999
 21
3.987485756547638
 31
0.0
  0
LINE
  5
1622
330
4E5
100
AcDbEntity
  8
0
  6
Continuous
 62
     0
370
    -2
100
AcDbLine
 10
40.0
 20
3.487485756547638
 30
0.0
 11
41.49999999999999
 21
3.487485756547638
 31
0.0
  0
LINE
  5
1623
330
4E5
100
AcDbEntity
  8
0
  6
Continuous
 62
     0
370
    -2
100
AcDbLine
 10
42.99999999999999
 20
3.487485756547638
 30
0.0
 11
44.49999999999999
 21
3.487485756547638
 31
0.0
  0
SOLID
  5
1624
330
4E5
100
AcDbEntity
  8
0
  6
Continuous
 62
     0
100
AcDbTrace
 10
40.0
 20
3.737485756547638
 30
0.0
 11
40.0
 21
3.237485756547638
 31
0.0
 12
38.5
 22
3.487485756547638
 32
0.0
 13
38.5
 23
3.487485756547638
 33
0.0
  0
SOLID
  5
1625
330
4E5
100
AcDbEntity
  8
0
  6
Continuous
 62
     0
100
AcDbTrace
 10
41.49999999999999
 20
3.737485756547638
 30
0.0
 11
41.49999999999999
 21
3.237485756547638
 31
0.0
 12
42.99999999999999
 22
3.487485756547638
 32
0.0
 13
42.99999999999999
 23
3.487485756547638
 33
0.0
  0
MTEXT
  5
1626
330
4E5
100
AcDbEntity
  8
0
  6
Continuous
 62
     0
370
     9
100
AcDbMText
 10
47.49999999999999
 20
3.487485756547638
 30
0.0
 40
2.5
 41
0.0
 71
     5
 72
     1
  1
\A1;4.5
 73
     1
 44
1.0
  0
POINT
  5
1627
330
4E5
100
AcDbEntity
  8
Defpoints
  6
Continuous
 62
     0
100
AcDbPoint
 10
38.5
 20
-1.000000000000003
 30
0.0
  0
POINT
  5
1628
330
4E5
100
AcDbEntity
  8
Defpoints
  6
Continuous
 62
     0
100
AcDbPoint
 10
42.99999999999999
 20
-0.0000000000000036
 30
0.0
  0
POINT
  5
1629
330
4E5
100
AcDbEntity
  8
Defpoints
  6
Continuous
 62
     0
100
AcDbPoint
 10
42.99999999999999
 20
3.487485756547638
 30
0.0
  0
ENDBLK
  5
4F1
330
4E5
100
AcDbEntity
  8
0
 62
     4
100
AcDbBlockEnd
  0
BLOCK
  5
520
330
515
100
AcDbEntity
  8
0
 62
     4
100
AcDbBlockBegin
  2
*D9
 70
     1
 10
0.0
 20
0.0
 30
0.0
  3
*D9
  1

  0
LINE
  5
162A
330
515
100
AcDbEntity
  8
0
  6
Continuous
 62
     0
370
    -2
100
AcDbLine
 10
43.49999999999999
 20
-18.5
 30
0.0
 11
48.42982788619099
 21
-18.5
 31
0.0
  0
LINE
  5
162B
330
515
100
AcDbEntity
  8
0
  6
Continuous
 62
     0
370
    -2
100
AcDbLine
 10
43.49999999999999
 20
-4.000000000000003
 30
0.0
 11
48.42982788619099
 21
-4.000000000000005
 31
0.0
  0
LINE
  5
162C
330
515
100
AcDbEntity
  8
0
  6
Continuous
 62
     0
370
    -2
100
AcDbLine
 10
47.92982788619098
 20
-17.0
 30
0.0
 11
47.92982788619099
 21
-15.08333333333333
 31
0.0
  0
LINE
  5
162D
330
515
100
AcDbEntity
  8
0
  6
Continuous
 62
     0
370
    -2
100
AcDbLine
 10
47.92982788619099
 20
-5.500000000000005
 30
0.0
 11
47.92982788619099
 21
-7.41666666666667
 31
0.0
  0
SOLID
  5
162E
330
515
100
AcDbEntity
  8
0
  6
Continuous
 62
     0
100
AcDbTrace
 10
47.67982788619098
 20
-17.0
 30
0.0
 11
48.17982788619098
 21
-17.0
 31
0.0
 12
47.92982788619098
 22
-18.5
 32
0.0
 13
47.92982788619098
 23
-18.5
 33
0.0
  0
SOLID
  5
162F
330
515
100
AcDbEntity
  8
0
  6
Continuous
 62
     0
100
AcDbTrace
 10
47.67982788619099
 20
-5.500000000000005
 30
0.0
 11
48.17982788619099
 21
-5.500000000000005
 31
0.0
 12
47.92982788619099
 22
-4.000000000000005
 32
0.0
 13
47.92982788619099
 23
-4.000000000000005
 33
0.0
  0
MTEXT
  5
1630
330
515
100
AcDbEntity
  8
0
  6
Continuous
 62
     0
370
     9
100
AcDbMText
 10
47.92982788619099
 20
-11.24999999999999
 30
0.0
 40
2.5
 41
0.0
 71
     5
 72
     1
  1
\A1;14.5
 11
0.0000000000000001
 21
1.0
 31
0.0
 73
     1
 44
1.0
  0
POINT
  5
1631
330
515
100
AcDbEntity
  8
Defpoints
  6
Continuous
 62
     0
100
AcDbPoint
 10
42.99999999999999
 20
-18.5
 30
0.0
  0
POINT
  5
1632
330
515
100
AcDbEntity
  8
Defpoints
  6
Continuous
 62
     0
100
AcDbPoint
 10
42.99999999999999
 20
-4.000000000000003
 30
0.0
  0
POINT
  5
1633
330
515
100
AcDbEntity
  8
Defpoints
  6
Continuous
 62
     0
100
AcDbPoint
 10
47.92982788619099
 20
-4.000000000000005
 30
0.0
  0
ENDBLK
  5
521
330
515
100
AcDbEntity
  8
0
 62
     4
100
AcDbBlockEnd
  0
BLOCK
  5
52F
330
523
100
AcDbEntity
  8
0
 62
     4
100
AcDbBlockBegin
  2
*D10
 70
     1
 10
0.0
 20
0.0
 30
0.0
  3
*D10
  1

  0
LINE
  5
1634
330
523
100
AcDbEntity
  8
0
  6
Continuous
 62
     0
370
    -2
100
AcDbLine
 10
43.49999999999999
 20
-4.000000000000003
 30
0.0
 11
48.42982788619099
 21
-4.000000000000005
 31
0.0
  0
LINE
  5
1635
330
523
100
AcDbEntity
  8
0
  6
Continuous
 62
     0
370
    -2
100
AcDbLine
 10
44.90247408665289
 20
-0.0000000000000037
 30
0.0
 11
48.42982788619099
 21
-0.0000000000000047
 31
0.0
  0
LINE
  5
1636
330
523
100
AcDbEntity
  8
0
  6
Continuous
 62
     0
370
    -2
100
AcDbLine
 10
47.92982788619099
 20
-2.500000000000005
 30
0.0
 11
47.92982788619099
 21
-1.500000000000004
 31
0.0
  0
MTEXT
  5
1637
330
523
100
AcDbEntity
  8
0
  6
Continuous
 62
     0
370
     9
100
AcDbMText
 10
50.14482788619099
 20
-2.000000000000005
 30
0.0
 40
2.5
 41
0.0
 71
     5
 72
     1
  1
\A1;4.0
 11
0.0000000000000001
 21
1.0
 31
0.0
 73
     1
 44
1.0
  0
SOLID
  5
1638
330
523
100
AcDbEntity
  8
0
  6
Continuous
 62
     0
100
AcDbTrace
 10
47.67982788619099
 20
-2.500000000000005
 30
0.0
 11
48.17982788619099
 21
-2.500000000000005
 31
0.0
 12
47.92982788619099
 22
-4.000000000000005
 32
0.0
 13
47.92982788619099
 23
-4.000000000000005
 33
0.0
  0
SOLID
  5
1639
330
523
100
AcDbEntity
  8
0
  6
Continuous
 62
     0
100
AcDbTrace
 10
47.67982788619099
 20
-1.500000000000004
 30
0.0
 11
48.17982788619099
 21
-1.500000000000004
 31
0.0
 12
47.92982788619099
 22
-0.0000000000000046
 32
0.0
 13
47.92982788619099
 23
-0.0000000000000046
 33
0.0
  0
POINT
  5
163A
330
523
100
AcDbEntity
  8
Defpoints
  6
Continuous
 62
     0
100
AcDbPoint
 10
42.99999999999999
 20
-4.000000000000003
 30
0.0
  0
POINT
  5
163B
330
523
100
AcDbEntity
  8
Defpoints
  6
Continuous
 62
     0
100
AcDbPoint
 10
44.40247408665288
 20
-0.0000000000000036
 30
0.0
  0
POINT
  5
163C
330
523
100
AcDbEntity
  8
Defpoints
  6
Continuous
 62
     0
100
AcDbPoint
 10
47.92982788619099
 20
-0.0000000000000046
 30
0.0
  0
ENDBLK
  5
530
330
523
100
AcDbEntity
  8
0
 62
     4
100
AcDbBlockEnd
  0
BLOCK
  5
982
330
977
100
AcDbEntity
  8
0
 62
     5
100
AcDbBlockBegin
  2
*D11
 70
     1
 10
0.0
 20
0.0
 30
0.0
  3
*D11
  1

  0
LINE
  5
163D
330
977
100
AcDbEntity
  8
0
  6
Continuous
 62
     0
370
    -2
100
AcDbLine
 10
-25.84007442058261
 20
-17.51999999999999
 30
0.0
 11
-30.2827023791815
 21
-17.51999999999999
 31
0.0
  0
LINE
  5
163E
330
977
100
AcDbEntity
  8
0
  6
Continuous
 62
     0
370
    -2
100
AcDbLine
 10
-25.8803891133319
 20
-36.47999999999999
 30
0.0
 11
-30.2827023791815
 21
-36.47999999999999
 31
0.0
  0
LINE
  5
163F
330
977
100
AcDbEntity
  8
0
  6
Continuous
 62
     0
370
    -2
100
AcDbLine
 10
-29.7827023791815
 20
-19.01999999999999
 30
0.0
 11
-29.7827023791815
 21
-21.91666666666668
 31
0.0
  0
LINE
  5
1640
330
977
100
AcDbEntity
  8
0
  6
Continuous
 62
     0
370
    -2
100
AcDbLine
 10
-29.78270237918151
 20
-34.97999999999999
 30
0.0
 11
-29.78270237918151
 21
-32.08333333333335
 31
0.0
  0
SOLID
  5
1641
330
977
100
AcDbEntity
  8
0
  6
Continuous
 62
     0
100
AcDbTrace
 10
-30.0327023791815
 20
-19.01999999999999
 30
0.0
 11
-29.5327023791815
 21
-19.01999999999999
 31
0.0
 12
-29.7827023791815
 22
-17.51999999999999
 32
0.0
 13
-29.7827023791815
 23
-17.51999999999999
 33
0.0
  0
SOLID
  5
1642
330
977
100
AcDbEntity
  8
0
  6
Continuous
 62
     0
100
AcDbTrace
 10
-30.03270237918151
 20
-34.97999999999999
 30
0.0
 11
-29.5327023791815
 21
-34.97999999999999
 31
0.0
 12
-29.78270237918151
 22
-36.47999999999999
 32
0.0
 13
-29.78270237918151
 23
-36.47999999999999
 33
0.0
  0
MTEXT
  5
1643
330
977
100
AcDbEntity
  8
0
  6
Continuous
 62
     0
100
AcDbMText
 10
-29.7827023791815
 20
-27.00000000000001
 30
0.0
 40
2.5
 41
0.0
 71
     5
 72
     1
  1
\A1;18.96
 11
0.0000000000000001
 21
1.0
 31
0.0
 73
     1
 44
1.0
  0
POINT
  5
1644
330
977
100
AcDbEntity
  8
Defpoints
  6
Continuous
 62
     0
100
AcDbPoint
 10
-25.34007442058261
 20
-17.51999999999999
 30
0.0
  0
POINT
  5
1645
330
977
100
AcDbEntity
  8
Defpoints
  6
Continuous
 62
     0
100
AcDbPoint
 10
-25.3803891133319
 20
-36.47999999999999
 30
0.0
  0
POINT
  5
1646
330
977
100
AcDbEntity
  8
Defpoints
  6
Continuous
 62
     0
100
AcDbPoint
 10
-29.78270237918151
 20
-36.47999999999999
 30
0.0
  0
ENDBLK
  5
983
330
977
100
AcDbEntity
  8
0
 62
     5
100
AcDbBlockEnd
  0
BLOCK
  5
A19
330
A0E
100
AcDbEntity
  8
0
 62
     5
100
AcDbBlockBegin
  2
*D12
 70
     1
 10
0.0
 20
0.0
 30
0.0
  3
*D12
  1

  0
LINE
  5
1647
330
A0E
100
AcDbEntity
  8
0
  6
Continuous
 62
     0
370
    -2
100
AcDbLine
 10
-7.069999999999993
 20
-11.4375
 30
0.0
 11
-7.069999999999992
 21
-3.205461710173612
 31
0.0
  0
LINE
  5
1648
330
A0E
100
AcDbEntity
  8
0
  6
Continuous
 62
     0
370
    -2
100
AcDbLine
 10
-17.13999999999998
 20
-12.5
 30
0.0
 11
-17.13999999999998
 21
-3.205461710173612
 31
0.0
  0
LINE
  5
1649
330
A0E
100
AcDbEntity
  8
0
  6
Continuous
 62
     0
370
    -2
100
AcDbLine
 10
-5.569999999999992
 20
-3.705461710173612
 30
0.0
 11
-4.069999999999992
 21
-3.705461710173612
 31
0.0
  0
LINE
  5
164A
330
A0E
100
AcDbEntity
  8
0
  6
Continuous
 62
     0
370
    -2
100
AcDbLine
 10
-18.63999999999998
 20
-3.705461710173612
 30
0.0
 11
-20.13999999999998
 21
-3.705461710173612
 31
0.0
  0
SOLID
  5
164B
330
A0E
100
AcDbEntity
  8
0
  6
Continuous
 62
     0
100
AcDbTrace
 10
-5.569999999999992
 20
-3.455461710173612
 30
0.0
 11
-5.569999999999992
 21
-3.955461710173612
 31
0.0
 12
-7.069999999999992
 22
-3.705461710173612
 32
0.0
 13
-7.069999999999992
 23
-3.705461710173612
 33
0.0
  0
SOLID
  5
164C
330
A0E
100
AcDbEntity
  8
0
  6
Continuous
 62
     0
100
AcDbTrace
 10
-18.63999999999998
 20
-3.455461710173612
 30
0.0
 11
-18.63999999999998
 21
-3.955461710173612
 31
0.0
 12
-17.13999999999998
 22
-3.705461710173612
 32
0.0
 13
-17.13999999999998
 23
-3.705461710173612
 33
0.0
  0
MTEXT
  5
164D
330
A0E
100
AcDbEntity
  8
0
  6
Continuous
 62
     0
100
AcDbMText
 10
-12.10499999999999
 20
-3.705461710173612
 30
0.0
 40
2.5
 41
0.0
 71
     5
 72
     1
  1
\A1;10.07
 73
     1
 44
1.0
  0
POINT
  5
164E
330
A0E
100
AcDbEntity
  8
Defpoints
  6
Continuous
 62
     0
100
AcDbPoint
 10
-7.069999999999993
 20
-11.9375
 30
0.0
  0
POINT
  5
164F
330
A0E
100
AcDbEntity
  8
Defpoints
  6
Continuous
 62
     0
100
AcDbPoint
 10
-17.13999999999998
 20
-12.99999999999999
 30
0.0
  0
POINT
  5
1650
330
A0E
100
AcDbEntity
  8
Defpoints
  6
Continuous
 62
     0
100
AcDbPoint
 10
-17.13999999999998
 20
-3.705461710173612
 30
0.0
  0
ENDBLK
  5
A1A
330
A0E
100
AcDbEntity
  8
0
 62
     5
100
AcDbBlockEnd
  0
BLOCK
  5
A66
330
A5B
100
AcDbEntity
  8
0
 62
     5
100
AcDbBlockBegin
  2
*D13
 70
     1
 10
0.0
 20
0.0
 30
0.0
  3
*D13
  1

  0
LINE
  5
165A
330
A5B
100
AcDbEntity
  8
0
  6
Continuous
 62
     0
370
    -2
100
AcDbLine
 10
-21.63999999999998
 20
-37.48777505943371
 30
0.0
 11
-21.63999999999998
 21
-39.7393922671593
 31
0.0
  0
LINE
  5
165B
330
A5B
100
AcDbEntity
  8
0
  6
Continuous
 62
     0
370
    -2
100
AcDbLine
 10
-25.45999999999998
 20
-36.97999999999999
 30
0.0
 11
-25.45999999999998
 21
-39.7393922671593
 31
0.0
  0
LINE
  5
165C
330
A5B
100
AcDbEntity
  8
0
  6
Continuous
 62
     0
370
    -2
100
AcDbLine
 10
-20.13999999999998
 20
-39.2393922671593
 30
0.0
 11
-18.63999999999998
 21
-39.2393922671593
 31
0.0
  0
LINE
  5
165D
330
A5B
100
AcDbEntity
  8
0
  6
Continuous
 62
     0
370
    -2
100
AcDbLine
 10
-26.95999999999997
 20
-39.2393922671593
 30
0.0
 11
-28.45999999999998
 21
-39.2393922671593
 31
0.0
  0
SOLID
  5
165E
330
A5B
100
AcDbEntity
  8
0
  6
Continuous
 62
     0
100
AcDbTrace
 10
-20.13999999999998
 20
-38.9893922671593
 30
0.0
 11
-20.13999999999998
 21
-39.4893922671593
 31
0.0
 12
-21.63999999999998
 22
-39.2393922671593
 32
0.0
 13
-21.63999999999998
 23
-39.2393922671593
 33
0.0
  0
SOLID
  5
165F
330
A5B
100
AcDbEntity
  8
0
  6
Continuous
 62
     0
100
AcDbTrace
 10
-26.95999999999997
 20
-38.9893922671593
 30
0.0
 11
-26.95999999999997
 21
-39.4893922671593
 31
0.0
 12
-25.45999999999998
 22
-39.2393922671593
 32
0.0
 13
-25.45999999999998
 23
-39.2393922671593
 33
0.0
  0
MTEXT
  5
1660
330
A5B
100
AcDbEntity
  8
0
  6
Continuous
 62
     0
100
AcDbMText
 10
-32.70999999999998
 20
-39.2393922671593
 30
0.0
 40
2.5
 41
0.0
 71
     5
 72
     1
  1
\A1;3.82
 73
     1
 44
1.0
  0
POINT
  5
1661
330
A5B
100
AcDbEntity
  8
Defpoints
  6
Continuous
 62
     0
100
AcDbPoint
 10
-21.63999999999998
 20
-36.98777505943371
 30
0.0
  0
POINT
  5
1662
330
A5B
100
AcDbEntity
  8
Defpoints
  6
Continuous
 62
     0
100
AcDbPoint
 10
-25.45999999999998
 20
-36.47999999999999
 30
0.0
  0
POINT
  5
1663
330
A5B
100
AcDbEntity
  8
Defpoints
  6
Continuous
 62
     0
100
AcDbPoint
 10
-25.45999999999998
 20
-39.2393922671593
 30
0.0
  0
ENDBLK
  5
A67
330
A5B
100
AcDbEntity
  8
0
 62
     5
100
AcDbBlockEnd
  0
BLOCK
  5
A86
330
A7B
100
AcDbEntity
  8
0
 62
     5
100
AcDbBlockBegin
  2
*D14
 70
     1
 10
0.0
 20
0.0
 30
0.0
  3
*D14
  1

  0
LINE
  5
1664
330
A7B
100
AcDbEntity
  8
0
  6
Continuous
 62
     0
370
    -2
100
AcDbLine
 10
-22.13999999999998
 20
-16.5
 30
0.0
 11
-22.13999999999998
 21
-8.48682727942219
 31
0.0
  0
LINE
  5
1665
330
A7B
100
AcDbEntity
  8
0
  6
Continuous
 62
     0
370
    -2
100
AcDbLine
 10
-17.13999999999998
 20
-12.5
 30
0.0
 11
-17.13999999999998
 21
-8.48682727942219
 31
0.0
  0
LINE
  5
1666
330
A7B
100
AcDbEntity
  8
0
  6
Continuous
 62
     0
370
    -2
100
AcDbLine
 10
-20.63999999999998
 20
-8.98682727942219
 30
0.0
 11
-18.63999999999998
 21
-8.98682727942219
 31
0.0
  0
LINE
  5
1667
330
A7B
100
AcDbEntity
  8
0
  6
Continuous
 62
     0
370
    -2
100
AcDbLine
 10
-17.13999999999998
 20
-8.98682727942219
 30
0.0
 11
-15.63999999999998
 21
-8.98682727942219
 31
0.0
  0
SOLID
  5
1668
330
A7B
100
AcDbEntity
  8
0
  6
Continuous
 62
     0
100
AcDbTrace
 10
-20.63999999999998
 20
-8.73682727942219
 30
0.0
 11
-20.63999999999998
 21
-9.23682727942219
 31
0.0
 12
-22.13999999999998
 22
-8.98682727942219
 32
0.0
 13
-22.13999999999998
 23
-8.98682727942219
 33
0.0
  0
SOLID
  5
1669
330
A7B
100
AcDbEntity
  8
0
  6
Continuous
 62
     0
100
AcDbTrace
 10
-18.63999999999998
 20
-8.73682727942219
 30
0.0
 11
-18.63999999999998
 21
-9.23682727942219
 31
0.0
 12
-17.13999999999998
 22
-8.98682727942219
 32
0.0
 13
-17.13999999999998
 23
-8.98682727942219
 33
0.0
  0
MTEXT
  5
166A
330
A7B
100
AcDbEntity
  8
0
  6
Continuous
 62
     0
100
AcDbMText
 10
-12.84833333333332
 20
-8.98682727942219
 30
0.0
 40
2.5
 41
0.0
 71
     5
 72
     1
  1
\A1;5.0
 73
     1
 44
1.0
  0
POINT
  5
166B
330
A7B
100
AcDbEntity
  8
Defpoints
  6
Continuous
 62
     0
100
AcDbPoint
 10
-22.13999999999998
 20
-17.0
 30
0.0
  0
POINT
  5
166C
330
A7B
100
AcDbEntity
  8
Defpoints
  6
Continuous
 62
     0
100
AcDbPoint
 10
-17.13999999999998
 20
-12.99999999999999
 30
0.0
  0
POINT
  5
166D
330
A7B
100
AcDbEntity
  8
Defpoints
  6
Continuous
 62
     0
100
AcDbPoint
 10
-17.13999999999998
 20
-8.98682727942219
 30
0.0
  0
ENDBLK
  5
A87
330
A7B
100
AcDbEntity
  8
0
 62
     5
100
AcDbBlockEnd
  0
BLOCK
  5
BAA
330
B9F
100
AcDbEntity
  8
0
 62
     5
100
AcDbBlockBegin
  2
*D15
 70
     1
 10
0.0
 20
0.0
 30
0.0
  3
*D15
  1

  0
LINE
  5
166E
330
B9F
100
AcDbEntity
  8
0
  6
Continuous
 62
     0
370
    -2
100
AcDbLine
 10
90.0
 20
-63.5
 30
0.0
 11
90.0
 21
-57.37158209807467
 31
0.0
  0
LINE
  5
166F
330
B9F
100
AcDbEntity
  8
0
  6
Continuous
 62
     0
370
    -2
100
AcDbLine
 10
97.98707735467178
 20
-64.75719103799066
 30
0.0
 11
97.98707735467178
 21
-57.37158209807467
 31
0.0
  0
LINE
  5
1670
330
B9F
100
AcDbEntity
  8
0
  6
Continuous
 62
     0
370
    -2
100
AcDbLine
 10
91.5
 20
-57.87158209807467
 30
0.0
 11
96.48707735467178
 21
-57.87158209807467
 31
0.0
  0
LINE
  5
1671
330
B9F
100
AcDbEntity
  8
0
  6
Continuous
 62
     0
370
    -2
100
AcDbLine
 10
97.98707735467178
 20
-57.87158209807467
 30
0.0
 11
99.48707735467179
 21
-57.87158209807467
 31
0.0
  0
SOLID
  5
1672
330
B9F
100
AcDbEntity
  8
0
  6
Continuous
 62
     0
100
AcDbTrace
 10
91.5
 20
-57.62158209807466
 30
0.0
 11
91.5
 21
-58.12158209807467
 31
0.0
 12
90.0
 22
-57.87158209807467
 32
0.0
 13
90.0
 23
-57.87158209807467
 33
0.0
  0
SOLID
  5
1673
330
B9F
100
AcDbEntity
  8
0
  6
Continuous
 62
     0
100
AcDbTrace
 10
96.48707735467178
 20
-57.62158209807466
 30
0.0
 11
96.48707735467178
 21
-58.12158209807467
 31
0.0
 12
97.98707735467178
 22
-57.87158209807467
 32
0.0
 13
97.98707735467178
 23
-57.87158209807467
 33
0.0
  0
MTEXT
  5
1674
330
B9F
100
AcDbEntity
  8
0
  6
Continuous
 62
     0
100
AcDbMText
 10
104.9870773546717
 20
-57.87158209807467
 30
0.0
 40
2.5
 41
0.0
 71
     5
 72
     1
  1
\A1;7.987
 73
     1
 44
1.0
  0
POINT
  5
1675
330
B9F
100
AcDbEntity
  8
Defpoints
  6
Continuous
 62
     0
100
AcDbPoint
 10
90.0
 20
-64.0
 30
0.0
  0
POINT
  5
1676
330
B9F
100
AcDbEntity
  8
Defpoints
  6
Continuous
 62
     0
100
AcDbPoint
 10
97.98707735467178
 20
-65.25719103799066
 30
0.0
  0
POINT
  5
1677
330
B9F
100
AcDbEntity
  8
Defpoints
  6
Continuous
 62
     0
100
AcDbPoint
 10
97.98707735467178
 20
-57.87158209807467
 30
0.0
  0
ENDBLK
  5
BAB
330
B9F
100
AcDbEntity
  8
0
 62
     5
100
AcDbBlockEnd
  0
BLOCK
  5
BB8
330
BAD
100
AcDbEntity
  8
0
 62
     5
100
AcDbBlockBegin
  2
*D16
 70
     1
 10
0.0
 20
0.0
 30
0.0
  3
*D16
  1

  0
LINE
  5
1678
330
BAD
100
AcDbEntity
  8
0
  6
Continuous
 62
     0
370
    -2
100
AcDbLine
 10
89.01292247986663
 20
-66.94193848105877
 30
0.0
 11
89.01292247986663
 21
-60.11144612779668
 31
0.0
  0
LINE
  5
1679
330
BAD
100
AcDbEntity
  8
0
  6
Continuous
 62
     0
370
    -2
100
AcDbLine
 10
89.99998592772987
 20
-63.50000000000381
 30
0.0
 11
89.99998592772987
 21
-60.11144612779668
 31
0.0
  0
LINE
  5
167A
330
BAD
100
AcDbEntity
  8
0
  6
Continuous
 62
     0
370
    -2
100
AcDbLine
 10
87.51292247986663
 20
-60.61144612779668
 30
0.0
 11
86.01292247986663
 21
-60.61144612779668
 31
0.0
  0
LINE
  5
167B
330
BAD
100
AcDbEntity
  8
0
  6
Continuous
 62
     0
370
    -2
100
AcDbLine
 10
91.49998592772988
 20
-60.61144612779668
 30
0.0
 11
92.99998592772988
 21
-60.61144612779668
 31
0.0
  0
SOLID
  5
167C
330
BAD
100
AcDbEntity
  8
0
  6
Continuous
 62
     0
100
AcDbTrace
 10
87.51292247986663
 20
-60.36144612779668
 30
0.0
 11
87.51292247986663
 21
-60.86144612779668
 31
0.0
 12
89.01292247986663
 22
-60.61144612779668
 32
0.0
 13
89.01292247986663
 23
-60.61144612779668
 33
0.0
  0
SOLID
  5
167D
330
BAD
100
AcDbEntity
  8
0
  6
Continuous
 62
     0
100
AcDbTrace
 10
91.49998592772988
 20
-60.36144612779668
 30
0.0
 11
91.49998592772988
 21
-60.86144612779668
 31
0.0
 12
89.99998592772987
 22
-60.61144612779668
 32
0.0
 13
89.99998592772987
 23
-60.61144612779668
 33
0.0
  0
MTEXT
  5
167E
330
BAD
100
AcDbEntity
  8
0
  6
Continuous
 62
     0
100
AcDbMText
 10
98.29165259439655
 20
-60.61144612779668
 30
0.0
 40
2.5
 41
0.0
 71
     5
 72
     1
  1
\A1;0.987
 73
     1
 44
1.0
  0
POINT
  5
167F
330
BAD
100
AcDbEntity
  8
Defpoints
  6
Continuous
 62
     0
100
AcDbPoint
 10
89.01292247986663
 20
-67.44193848105877
 30
0.0
  0
POINT
  5
1680
330
BAD
100
AcDbEntity
  8
Defpoints
  6
Continuous
 62
     0
100
AcDbPoint
 10
89.99998592772987
 20
-64.00000000000381
 30
0.0
  0
POINT
  5
1681
330
BAD
100
AcDbEntity
  8
Defpoints
  6
Continuous
 62
     0
100
AcDbPoint
 10
89.99998592772987
 20
-60.61144612779668
 30
0.0
  0
ENDBLK
  5
BB9
330
BAD
100
AcDbEntity
  8
0
 62
     5
100
AcDbBlockEnd
  0
BLOCK
  5
BC8
330
BBB
100
AcDbEntity
  8
0
 62
     5
100
AcDbBlockBegin
  2
*D17
 70
     1
 10
0.0
 20
0.0
 30
0.0
  3
*D17
  1

  0
LINE
  5
1682
330
BBB
100
AcDbEntity
  8
0
  6
Continuous
 62
     0
370
    -2
100
AcDbLine
 10
96.02583159233951
 20
-8.454398287236656
 30
0.0
 11
94.11660706400249
 21
-14.33039095104803
 31
0.0
  0
ARC
  5
1683
330
BBB
100
AcDbEntity
  8
0
  6
Continuous
 62
     0
370
    -2
100
AcDbCircle
 10
90.00000000000001
 20
-27.00001285714296
 30
0.0
 40
13.82162801472836
100
AcDbArc
 50
65.7788983902812
 51
72.00001078698749
  0
ARC
  5
1684
330
BBB
100
AcDbEntity
  8
0
  6
Continuous
 62
     0
370
    -2
100
AcDbCircle
 10
90.0
 20
-27.00001285714296
 30
0.0
 40
13.82162801472836
100
AcDbArc
 50
78.22112318369379
 51
83.77888760329375
  0
SOLID
  5
1685
330
BBB
100
AcDbEntity
  8
0
  6
Continuous
 62
     0
100
AcDbTrace
 10
92.88571888366725
 20
-13.22782495045614
 30
0.0
 11
92.75724160301127
 21
-13.71103669323072
 31
0.0
 12
94.27111547166298
 22
-13.85486266381138
 32
0.0
 13
94.27111547166298
 23
-13.85486266381138
 33
0.0
  0
SOLID
  5
1686
330
BBB
100
AcDbEntity
  8
0
  6
Continuous
 62
     0
100
AcDbTrace
 10
91.48422433909381
 20
-13.50941068920229
 30
0.0
 11
91.51135573053339
 21
-13.01014734426442
 31
0.0
 12
89.99999999999998
 22
-13.17838484241459
 32
0.0
 13
89.99999999999998
 23
-13.17838484241459
 33
0.0
  0
MTEXT
  5
1687
330
BBB
100
AcDbEntity
  8
0
  6
Continuous
 62
     0
100
AcDbMText
 10
98.40635361104798
 20
-15.62589223427524
 30
0.0
 40
2.5
 41
0.0
 71
     5
 72
     1
  1
\A1;18°
 11
0.9119690827095345
 21
-0.4102589330921757
 31
0.0
 73
     1
 44
1.0
  0
POINT
  5
1688
330
BBB
100
AcDbEntity
  8
Defpoints
  6
Continuous
 62
     0
100
AcDbPoint
 10
91.44475267359622
 20
-13.25410107619293
 30
0.0
  0
POINT
  5
1689
330
BBB
100
AcDbEntity
  8
Defpoints
  6
Continuous
 62
     0
100
AcDbPoint
 10
96.18034000000001
 20
-7.978870000000011
 30
0.0
  0
POINT
  5
168A
330
BBB
100
AcDbEntity
  8
Defpoints
  6
Continuous
 62
     0
100
AcDbPoint
 10
90.00000000000001
 20
-44.00000000000001
 30
0.0
  0
POINT
  5
168B
330
BBB
100
AcDbEntity
  8
Defpoints
  6
Continuous
 62
     0
100
AcDbPoint
 10
90.00000000000001
 20
6.533818747688602
 30
0.0
  0
POINT
  5
168C
330
BBB
100
AcDbEntity
  8
Defpoints
  6
Continuous
 62
     0
100
AcDbPoint
 10
98.343459
 20
-1.321470000000008
 30
0.0
  0
ENDBLK
  5
BC9
330
BBB
100
AcDbEntity
  8
0
 62
     5
100
AcDbBlockEnd
  0
BLOCK
  5
BD9
330
BCB
100
AcDbEntity
  8
0
 62
     5
100
AcDbBlockBegin
  2
*D18
 70
     1
 10
0.0
 20
0.0
 30
0.0
  3
*D18
  1

  0
LINE
  5
16BE
330
BCB
100
AcDbEntity
  8
0
  6
Continuous
 62
     0
370
    -2
100
AcDbLine
 10
93.80426092958916
 20
-70.87468724315107
 30
0.0
 11
92.27523758030356
 21
-78.56159914794933
 31
0.0
  0
ARC
  5
16BF
330
BCB
100
AcDbEntity
  8
0
  6
Continuous
 62
     0
370
    -2
100
AcDbCircle
 10
90.0
 20
-89.99997963471654
 30
0.0
 40
12.16247204527767
100
AcDbArc
 50
64.58131595906046
 51
78.74998921301219
  0
ARC
  5
16C0
330
BCB
100
AcDbEntity
  8
0
  6
Continuous
 62
     0
370
    -2
100
AcDbCircle
 10
90.00000000000001
 20
-89.99997963471654
 30
0.0
 40
12.16247204527767
100
AcDbArc
 50
64.60841826127936
 51
71.67920373714577
  0
ARC
  5
16C1
330
BCB
100
AcDbEntity
  8
0
  6
Continuous
 62
     0
370
    -2
100
AcDbCircle
 10
90.00000000000001
 20
-89.99997963471654
 30
0.0
 40
12.16247204527767
100
AcDbArc
 50
97.07078547586638
 51
104.1415709517327
  0
SOLID
  5
16C2
330
BCB
100
AcDbEntity
  8
0
  6
Continuous
 62
     0
100
AcDbTrace
 10
93.75931562293697
 20
-78.69572780212809
 30
0.0
 11
93.88691534546641
 21
-78.21228358527323
 31
0.0
 12
92.37278283363707
 22
-78.07120652611239
 32
0.0
 13
92.37278283363707
 23
-78.07120652611239
 33
0.0
  0
SOLID
  5
16C3
330
BCB
100
AcDbEntity
  8
0
  6
Continuous
 62
     0
100
AcDbTrace
 10
88.48743838048021
 20
-77.6804810083909
 30
0.0
 11
88.51827092822246
 21
-78.17952945694045
 31
0.0
 12
90.0
 22
-77.83750758943888
 32
0.0
 13
90.0
 23
-77.83750758943888
 33
0.0
  0
MTEXT
  5
16C4
330
BCB
100
AcDbEntity
  8
0
  6
Continuous
 62
     0
100
AcDbMText
 10
100.1880685971134
 20
-81.37565447197642
 30
0.0
 40
2.5
 41
0.0
 71
     5
 72
     1
  1
\A1;11.25°
 11
0.9031953699326296
 21
-0.429229686452674
 31
0.0
 73
     1
 44
1.0
  0
POINT
  5
16C5
330
BCB
100
AcDbEntity
  8
Defpoints
  6
Continuous
 62
     0
100
AcDbPoint
 10
90.79546449257103
 20
-77.86354842561642
 30
0.0
  0
POINT
  5
16C6
330
BCB
100
AcDbEntity
  8
Defpoints
  6
Continuous
 62
     0
100
AcDbPoint
 10
95.26744054574129
 20
-63.51879381254206
 30
0.0
  0
POINT
  5
16C7
330
BCB
100
AcDbEntity
  8
Defpoints
  6
Continuous
 62
     0
100
AcDbPoint
 10
90.0
 20
-53.29530677446451
 30
0.0
  0
POINT
  5
16C8
330
BCB
100
AcDbEntity
  8
Defpoints
  6
Continuous
 62
     0
100
AcDbPoint
 10
89.99999999999998
 20
-96.26548176173567
 30
0.0
  0
POINT
  5
16C9
330
BCB
100
AcDbEntity
  8
Defpoints
  6
Continuous
 62
     0
100
AcDbPoint
 10
93.90180618292269
 20
-70.38429462131414
 30
0.0
  0
ENDBLK
  5
BDA
330
BCB
100
AcDbEntity
  8
0
 62
     5
100
AcDbBlockEnd
  0
BLOCK
  5
BF5
330
BEA
100
AcDbEntity
  8
0
 62
     5
100
AcDbBlockBegin
  2
*D19
 70
     1
 10
0.0
 20
0.0
 30
0.0
  3
*D19
  1

  0
LINE
  5
168D
330
BEA
100
AcDbEntity
  8
0
  6
Continuous
 62
     0
370
    -2
100
AcDbLine
 10
31.0
 20
-0.0000000000000037
 30
0.0
 11
55.55413731583541
 21
-0.0000000000000106
 31
0.0
  0
LINE
  5
168E
330
BEA
100
AcDbEntity
  8
0
  6
Continuous
 62
     0
370
    -2
100
AcDbLine
 10
55.05413731583542
 20
-1.50000000000001
 30
0.0
 11
55.05413731583542
 21
-5.416666666666672
 31
0.0
  0
LINE
  5
168F
330
BEA
100
AcDbEntity
  8
0
  6
Continuous
 62
     0
370
    -2
100
AcDbLine
 10
55.05413731583541
 20
-16.99999999999999
 30
0.0
 11
55.05413731583542
 21
-13.08333333333333
 31
0.0
  0
SOLID
  5
1690
330
BEA
100
AcDbEntity
  8
0
  6
Continuous
 62
     0
100
AcDbTrace
 10
54.80413731583542
 20
-1.50000000000001
 30
0.0
 11
55.30413731583542
 21
-1.50000000000001
 31
0.0
 12
55.05413731583542
 22
-0.0000000000000105
 32
0.0
 13
55.05413731583542
 23
-0.0000000000000105
 33
0.0
  0
SOLID
  5
1691
330
BEA
100
AcDbEntity
  8
0
  6
Continuous
 62
     0
100
AcDbTrace
 10
54.80413731583541
 20
-16.99999999999999
 30
0.0
 11
55.30413731583541
 21
-16.99999999999999
 31
0.0
 12
55.05413731583541
 22
-18.49999999999999
 32
0.0
 13
55.05413731583541
 23
-18.49999999999999
 33
0.0
  0
MTEXT
  5
1692
330
BEA
100
AcDbEntity
  8
0
  6
Continuous
 62
     0
370
    15
100
AcDbMText
 10
55.05413731583542
 20
-9.249999999999996
 30
0.0
 40
2.5
 41
0.0
 71
     5
 72
     1
  1
\A1;18.5
 11
0.0000000000000001
 21
1.0
 31
0.0
 73
     1
 44
1.0
  0
POINT
  5
1693
330
BEA
100
AcDbEntity
  8
Defpoints
  6
Continuous
 62
     0
100
AcDbPoint
 10
30.5
 20
-0.0000000000000036
 30
0.0
  0
POINT
  5
1694
330
BEA
100
AcDbEntity
  8
Defpoints
  6
Continuous
 62
     0
100
AcDbPoint
 10
55.05413731583541
 20
-18.49999999999999
 30
0.0
  0
POINT
  5
1695
330
BEA
100
AcDbEntity
  8
Defpoints
  6
Continuous
 62
     0
100
AcDbPoint
 10
55.05413731583541
 20
-18.49999999999999
 30
0.0
  0
ENDBLK
  5
BF6
330
BEA
100
AcDbEntity
  8
0
 62
     5
100
AcDbBlockEnd
  0
BLOCK
  5
C6F
330
C64
100
AcDbEntity
  8
0
 62
     5
100
AcDbBlockBegin
  2
*D20
 70
     1
 10
0.0
 20
0.0
 30
0.0
  3
*D20
  1

  0
LINE
  5
1696
330
C64
100
AcDbEntity
  8
0
  6
Continuous
 62
     0
370
    -2
100
AcDbLine
 10
90.0
 20
-0.5
 30
0.0
 11
90.0
 21
7.357628355487179
 31
0.0
  0
LINE
  5
1697
330
C64
100
AcDbEntity
  8
0
  6
Continuous
 62
     0
370
    -2
100
AcDbLine
 10
100.607391
 20
-2.762197739194157
 30
0.0
 11
100.607391
 21
7.357628355487179
 31
0.0
  0
LINE
  5
1698
330
C64
100
AcDbEntity
  8
0
  6
Continuous
 62
     0
370
    -2
100
AcDbLine
 10
91.5
 20
6.857628355487179
 30
0.0
 11
99.107391
 21
6.857628355487179
 31
0.0
  0
LINE
  5
1699
330
C64
100
AcDbEntity
  8
0
  6
Continuous
 62
     0
370
    -2
100
AcDbLine
 10
100.607391
 20
6.857628355487179
 30
0.0
 11
102.107391
 21
6.857628355487179
 31
0.0
  0
SOLID
  5
169A
330
C64
100
AcDbEntity
  8
0
  6
Continuous
 62
     0
100
AcDbTrace
 10
91.5
 20
7.107628355487179
 30
0.0
 11
91.5
 21
6.607628355487179
 31
0.0
 12
90.0
 22
6.857628355487179
 32
0.0
 13
90.0
 23
6.857628355487179
 33
0.0
  0
SOLID
  5
169B
330
C64
100
AcDbEntity
  8
0
  6
Continuous
 62
     0
100
AcDbTrace
 10
99.107391
 20
7.107628355487179
 30
0.0
 11
99.107391
 21
6.607628355487179
 31
0.0
 12
100.607391
 22
6.857628355487179
 32
0.0
 13
100.607391
 23
6.857628355487179
 33
0.0
  0
MTEXT
  5
169C
330
C64
100
AcDbEntity
  8
0
  6
Continuous
 62
     0
100
AcDbMText
 10
108.0240576666666
 20
6.857628355487179
 30
0.0
 40
2.5
 41
0.0
 71
     5
 72
     1
  1
\A1;10.607
 73
     1
 44
1.0
  0
POINT
  5
169D
330
C64
100
AcDbEntity
  8
Defpoints
  6
Continuous
 62
     0
100
AcDbPoint
 10
90.0
 20
-1.0
 30
0.0
  0
POINT
  5
169E
330
C64
100
AcDbEntity
  8
Defpoints
  6
Continuous
 62
     0
100
AcDbPoint
 10
100.607391
 20
-3.262197739194157
 30
0.0
  0
POINT
  5
169F
330
C64
100
AcDbEntity
  8
Defpoints
  6
Continuous
 62
     0
100
AcDbPoint
 10
100.607391
 20
6.857628355487179
 30
0.0
  0
ENDBLK
  5
C70
330
C64
100
AcDbEntity
  8
0
 62
     5
100
AcDbBlockEnd
  0
BLOCK
  5
C87
330
C7C
100
AcDbEntity
  8
0
 62
     5
100
AcDbBlockBegin
  2
*D21
 70
     1
 10
0.0
 20
0.0
 30
0.0
  3
*D21
  1

  0
LINE
  5
16A0
330
C7C
100
AcDbEntity
  8
0
  6
Continuous
 62
     0
370
    -2
100
AcDbLine
 10
86.392609
 20
-0.7514713008079035
 30
0.0
 11
86.392609
 21
3.599584061391851
 31
0.0
  0
LINE
  5
16A1
330
C7C
100
AcDbEntity
  8
0
  6
Continuous
 62
     0
370
    -2
100
AcDbLine
 10
90.0
 20
-0.5
 30
0.0
 11
90.0
 21
3.599584061391851
 31
0.0
  0
LINE
  5
16A2
330
C7C
100
AcDbEntity
  8
0
  6
Continuous
 62
     0
370
    -2
100
AcDbLine
 10
84.89260899999999
 20
3.099584061391851
 30
0.0
 11
83.39260899999999
 21
3.099584061391851
 31
0.0
  0
LINE
  5
16A3
330
C7C
100
AcDbEntity
  8
0
  6
Continuous
 62
     0
370
    -2
100
AcDbLine
 10
91.5
 20
3.099584061391851
 30
0.0
 11
93.0
 21
3.099584061391851
 31
0.0
  0
SOLID
  5
16A4
330
C7C
100
AcDbEntity
  8
0
  6
Continuous
 62
     0
100
AcDbTrace
 10
84.89260899999999
 20
3.349584061391851
 30
0.0
 11
84.89260899999999
 21
2.849584061391851
 31
0.0
 12
86.392609
 22
3.099584061391851
 32
0.0
 13
86.392609
 23
3.099584061391851
 33
0.0
  0
SOLID
  5
16A5
330
C7C
100
AcDbEntity
  8
0
  6
Continuous
 62
     0
100
AcDbTrace
 10
91.5
 20
3.349584061391851
 30
0.0
 11
91.5
 21
2.849584061391851
 31
0.0
 12
90.0
 22
3.099584061391851
 32
0.0
 13
90.0
 23
3.099584061391851
 33
0.0
  0
MTEXT
  5
16A6
330
C7C
100
AcDbEntity
  8
0
  6
Continuous
 62
     0
100
AcDbMText
 10
98.29166666666667
 20
3.099584061391851
 30
0.0
 40
2.5
 41
0.0
 71
     5
 72
     1
  1
\A1;3.607
 73
     1
 44
1.0
  0
POINT
  5
16A7
330
C7C
100
AcDbEntity
  8
Defpoints
  6
Continuous
 62
     0
100
AcDbPoint
 10
86.392609
 20
-1.251471300807903
 30
0.0
  0
POINT
  5
16A8
330
C7C
100
AcDbEntity
  8
Defpoints
  6
Continuous
 62
     0
100
AcDbPoint
 10
90.0
 20
-1.0
 30
0.0
  0
POINT
  5
16A9
330
C7C
100
AcDbEntity
  8
Defpoints
  6
Continuous
 62
     0
100
AcDbPoint
 10
90.0
 20
3.099584061391851
 30
0.0
  0
ENDBLK
  5
C88
330
C7C
100
AcDbEntity
  8
0
 62
     5
100
AcDbBlockEnd
  0
BLOCK
  5
D23
330
D18
100
AcDbEntity
  8
0
 62
     5
100
AcDbBlockBegin
  2
*D22
 70
     1
 10
0.0
 20
0.0
 30
0.0
  3
*D22
  1

  0
LINE
  5
16AA
330
D18
100
AcDbEntity
  8
0
  6
Continuous
 62
     0
370
    -2
100
AcDbLine
 10
-62.0
 20
-0.0000000000000037
 30
0.0
 11
-48.2498366642875
 21
-0.0000000000000076
 31
0.0
  0
LINE
  5
16AB
330
D18
100
AcDbEntity
  8
0
  6
Continuous
 62
     0
370
    -2
100
AcDbLine
 10
-61.0
 20
-90.0
 30
0.0
 11
-48.24983666428753
 21
-90.0
 31
0.0
  0
LINE
  5
16AC
330
D18
100
AcDbEntity
  8
0
  6
Continuous
 62
     0
370
    -2
100
AcDbLine
 10
-48.7498366642875
 20
-1.500000000000007
 30
0.0
 11
-48.74983666428751
 21
-41.16666666666666
 31
0.0
  0
LINE
  5
16AD
330
D18
100
AcDbEntity
  8
0
  6
Continuous
 62
     0
370
    -2
100
AcDbLine
 10
-48.74983666428753
 20
-88.49999999999999
 30
0.0
 11
-48.74983666428752
 21
-48.83333333333333
 31
0.0
  0
SOLID
  5
16AE
330
D18
100
AcDbEntity
  8
0
  6
Continuous
 62
     0
100
AcDbTrace
 10
-48.99983666428751
 20
-1.500000000000007
 30
0.0
 11
-48.49983666428751
 21
-1.500000000000007
 31
0.0
 12
-48.7498366642875
 22
-0.0000000000000074
 32
0.0
 13
-48.7498366642875
 23
-0.0000000000000074
 33
0.0
  0
SOLID
  5
16AF
330
D18
100
AcDbEntity
  8
0
  6
Continuous
 62
     0
100
AcDbTrace
 10
-48.99983666428752
 20
-88.49999999999999
 30
0.0
 11
-48.49983666428753
 21
-88.49999999999999
 31
0.0
 12
-48.74983666428753
 22
-90.0
 32
0.0
 13
-48.74983666428753
 23
-90.0
 33
0.0
  0
MTEXT
  5
16B0
330
D18
100
AcDbEntity
  8
0
  6
Continuous
 62
     0
100
AcDbMText
 10
-48.7498366642875
 20
-45.00000000000001
 30
0.0
 40
2.5
 41
0.0
 71
     5
 72
     1
  1
\A1;90.0
 11
0.0000000000000001
 21
1.0
 31
0.0
 73
     1
 44
1.0
  0
POINT
  5
16B1
330
D18
100
AcDbEntity
  8
Defpoints
  6
Continuous
 62
     0
100
AcDbPoint
 10
-62.5
 20
-0.0000000000000036
 30
0.0
  0
POINT
  5
16B2
330
D18
100
AcDbEntity
  8
Defpoints
  6
Continuous
 62
     0
100
AcDbPoint
 10
-61.5
 20
-90.0
 30
0.0
  0
POINT
  5
16B3
330
D18
100
AcDbEntity
  8
Defpoints
  6
Continuous
 62
     0
100
AcDbPoint
 10
-48.74983666428753
 20
-90.0
 30
0.0
  0
ENDBLK
  5
D24
330
D18
100
AcDbEntity
  8
0
 62
     5
100
AcDbBlockEnd
  0
BLOCK
  5
D30
330
D25
100
AcDbEntity
  8
0
 62
     5
100
AcDbBlockBegin
  2
*D23
 70
     1
 10
0.0
 20
0.0
 30
0.0
  3
*D23
  1

  0
LINE
  5
16B4
330
D25
100
AcDbEntity
  8
0
  6
Continuous
 62
     0
370
    -2
100
AcDbLine
 10
-127.5
 20
-0.5000000000000036
 30
0.0
 11
-127.5
 21
9.512258783301771
 31
0.0
  0
LINE
  5
16B5
330
D25
100
AcDbEntity
  8
0
  6
Continuous
 62
     0
370
    -2
100
AcDbLine
 10
-61.5
 20
-0.5000000000000036
 30
0.0
 11
-61.5
 21
9.512258783301771
 31
0.0
  0
LINE
  5
16B6
330
D25
100
AcDbEntity
  8
0
  6
Continuous
 62
     0
370
    -2
100
AcDbLine
 10
-126.0
 20
9.012258783301771
 30
0.0
 11
-98.54166666666667
 21
9.012258783301771
 31
0.0
  0
LINE
  5
16B7
330
D25
100
AcDbEntity
  8
0
  6
Continuous
 62
     0
370
    -2
100
AcDbLine
 10
-63.0
 20
9.012258783301771
 30
0.0
 11
-90.45833333333332
 21
9.012258783301771
 31
0.0
  0
SOLID
  5
16B8
330
D25
100
AcDbEntity
  8
0
  6
Continuous
 62
     0
100
AcDbTrace
 10
-126.0
 20
9.262258783301771
 30
0.0
 11
-126.0
 21
8.762258783301771
 31
0.0
 12
-127.5
 22
9.012258783301771
 32
0.0
 13
-127.5
 23
9.012258783301771
 33
0.0
  0
SOLID
  5
16B9
330
D25
100
AcDbEntity
  8
0
  6
Continuous
 62
     0
100
AcDbTrace
 10
-63.0
 20
9.262258783301771
 30
0.0
 11
-63.0
 21
8.762258783301771
 31
0.0
 12
-61.5
 22
9.012258783301771
 32
0.0
 13
-61.5
 23
9.012258783301771
 33
0.0
  0
MTEXT
  5
16BA
330
D25
100
AcDbEntity
  8
0
  6
Continuous
 62
     0
100
AcDbMText
 10
-94.50000000000001
 20
9.012258783301771
 30
0.0
 40
2.5
 41
0.0
 71
     5
 72
     1
  1
\A1;66.0
 73
     1
 44
1.0
  0
POINT
  5
16BB
330
D25
100
AcDbEntity
  8
Defpoints
  6
Continuous
 62
     0
100
AcDbPoint
 10
-127.5
 20
-1.000000000000003
 30
0.0
  0
POINT
  5
16BC
330
D25
100
AcDbEntity
  8
Defpoints
  6
Continuous
 62
     0
100
AcDbPoint
 10
-61.5
 20
-1.000000000000003
 30
0.0
  0
POINT
  5
16BD
330
D25
100
AcDbEntity
  8
Defpoints
  6
Continuous
 62
     0
100
AcDbPoint
 10
-61.5
 20
9.012258783301771
 30
0.0
  0
ENDBLK
  5
D31
330
D25
100
AcDbEntity
  8
0
 62
     5
100
AcDbBlockEnd
  0
BLOCK
  5
1197
330
118E
100
AcDbEntity
  8
0
 62
     5
100
AcDbBlockBegin
  2
*D24
 70
     1
 10
0.0
 20
0.0
 30
0.0
  3
*D24
  1

  0
LINE
  5
16CA
330
118E
100
AcDbEntity
  8
0
  6
Continuous
 62
     0
370
    -2
100
AcDbLine
 10
114.2072609580305
 20
-14.70147906621465
 30
0.0
 11
111.8426732393052
 21
-15.90281000608985
 31
0.0
  0
MTEXT
  5
16CB
330
118E
100
AcDbEntity
  8
0
  6
Continuous
 62
     0
100
AcDbMText
 10
118.9249811984927
 20
-12.30463700970686
 30
0.0
 40
2.5
 41
0.0
 71
     5
 72
     1
  1
\A1;\U+220546.0
 11
0.8915376832369481
 21
0.4529465303636789
 31
0.0
 73
     1
 44
1.0
  0
SOLID
  5
16CC
330
118E
100
AcDbEntity
  8
0
  6
Continuous
 62
     0
100
AcDbTrace
 10
111.7294366067143
 20
-15.67992558528062
 30
0.0
 11
111.9559098718961
 21
-16.12569442689909
 31
0.0
 12
110.5053667144498
 22
-16.58222980163538
 32
0.0
 13
110.5053667144498
 23
-16.58222980163538
 33
0.0
  0
LINE
  5
16CD
330
118E
100
AcDbEntity
  8
0
  6
Continuous
 62
     0
370
    -2
100
AcDbLine
 10
89.90999999999997
 20
-26.99999999999998
 30
0.0
 11
90.08999999999998
 21
-26.99999999999999
 31
0.0
  0
LINE
  5
16CE
330
118E
100
AcDbEntity
  8
0
  6
Continuous
 62
     0
370
    -2
100
AcDbLine
 10
89.99999999999998
 20
-27.08999999999999
 30
0.0
 11
89.99999999999998
 21
-26.90999999999998
 31
0.0
  0
POINT
  5
16CF
330
118E
100
AcDbEntity
  8
Defpoints
  6
Continuous
 62
     0
100
AcDbPoint
 10
110.5053667144498
 20
-16.58222980163538
 30
0.0
  0
POINT
  5
16D0
330
118E
100
AcDbEntity
  8
Defpoints
  6
Continuous
 62
     0
100
AcDbPoint
 10
69.49463328555019
 20
-37.41777019836462
 30
0.0
  0
ENDBLK
  5
1198
330
118E
100
AcDbEntity
  8
0
 62
     5
100
AcDbBlockEnd
  0
BLOCK
  5
1871
330
1866
100
AcDbEntity
  8
0
 62
     3
100
AcDbBlockBegin
  2
*D25
 70
     1
 10
0.0
 20
0.0
 30
0.0
  3
*D25
  1

  0
LINE
  5
1896
330
1866
100
AcDbEntity
  8
0
 62
     0
370
    -2
100
AcDbLine
 10
-7.069999999999993
 20
-42.5
 30
0.0
 11
-7.069999999999993
 21
-44.45677491385305
 31
0.0
  0
LINE
  5
1897
330
1866
100
AcDbEntity
  8
0
 62
     0
370
    -2
100
AcDbLine
 10
0.0
 20
-42.5
 30
0.0
 11
-0.0000000000000002
 21
-44.45677491385305
 31
0.0
  0
LINE
  5
1898
330
1866
100
AcDbEntity
  8
0
 62
     0
370
    -2
100
AcDbLine
 10
-8.569999999999993
 20
-43.95677491385305
 30
0.0
 11
-10.06999999999999
 21
-43.95677491385305
 31
0.0
  0
LINE
  5
1899
330
1866
100
AcDbEntity
  8
0
 62
     0
370
    -2
100
AcDbLine
 10
1.499999999999999
 20
-43.95677491385305
 30
0.0
 11
3.0
 21
-43.95677491385305
 31
0.0
  0
SOLID
  5
189A
330
1866
100
AcDbEntity
  8
0
 62
     0
100
AcDbTrace
 10
-8.569999999999993
 20
-43.70677491385305
 30
0.0
 11
-8.569999999999993
 21
-44.20677491385305
 31
0.0
 12
-7.069999999999993
 22
-43.95677491385305
 32
0.0
 13
-7.069999999999993
 23
-43.95677491385305
 33
0.0
  0
SOLID
  5
189B
330
1866
100
AcDbEntity
  8
0
 62
     0
100
AcDbTrace
 10
1.499999999999999
 20
-43.70677491385305
 30
0.0
 11
1.499999999999999
 21
-44.20677491385305
 31
0.0
 12
-0.0000000000000001
 22
-43.95677491385305
 32
0.0
 13
-0.0000000000000001
 23
-43.95677491385305
 33
0.0
  0
MTEXT
  5
189C
330
1866
100
AcDbEntity
  8
0
 62
     0
100
AcDbMText
 10
-3.534999999999996
 20
-43.95677491385305
 30
0.0
 40
2.5
 41
0.0
 71
     5
 72
     1
  1
\A1;7.1
 73
     1
 44
1.0
  0
POINT
  5
189D
330
1866
100
AcDbEntity
  8
Defpoints
 62
     0
100
AcDbPoint
 10
-7.069999999999993
 20
-42.0
 30
0.0
  0
POINT
  5
189E
330
1866
100
AcDbEntity
  8
Defpoints
 62
     0
100
AcDbPoint
 10
0.0
 20
-42.0
 30
0.0
  0
POINT
  5
189F
330
1866
100
AcDbEntity
  8
Defpoints
 62
     0
100
AcDbPoint
 10
-0.0000000000000001
 20
-43.95677491385305
 30
0.0
  0
ENDBLK
  5
1872
330
1866
100
AcDbEntity
  8
0
 62
     3
100
AcDbBlockEnd
  0
BLOCK
  5
1894
330
1889
100
AcDbEntity
  8
0
 62
     6
100
AcDbBlockBegin
  2
*D26
 70
     1
 10
0.0
 20
0.0
 30
0.0
  3
*D26
  1

  0
LINE
  5
188A
330
1889
100
AcDbEntity
  8
0
 62
     0
370
    -2
100
AcDbLine
 10
34.84999999999999
 20
-20.0
 30
0.0
 11
37.02708603188909
 21
-20.0
 31
0.0
  0
LINE
  5
188B
330
1889
100
AcDbEntity
  8
0
 62
     0
370
    -2
100
AcDbLine
 10
34.84999999999999
 20
-18.0
 30
0.0
 11
37.02708603188909
 21
-18.0
 31
0.0
  0
LINE
  5
188C
330
1889
100
AcDbEntity
  8
0
 62
     0
370
    -2
100
AcDbLine
 10
36.52708603188909
 20
-21.5
 30
0.0
 11
36.52708603188909
 21
-23.0
 31
0.0
  0
LINE
  5
188D
330
1889
100
AcDbEntity
  8
0
 62
     0
370
    -2
100
AcDbLine
 10
36.52708603188909
 20
-16.5
 30
0.0
 11
36.5270860318891
 21
-15.0
 31
0.0
  0
SOLID
  5
188E
330
1889
100
AcDbEntity
  8
0
 62
     0
100
AcDbTrace
 10
36.2770860318891
 20
-21.5
 30
0.0
 11
36.77708603188909
 21
-21.5
 31
0.0
 12
36.52708603188909
 22
-20.0
 32
0.0
 13
36.52708603188909
 23
-20.0
 33
0.0
  0
SOLID
  5
188F
330
1889
100
AcDbEntity
  8
0
 62
     0
100
AcDbTrace
 10
36.2770860318891
 20
-16.5
 30
0.0
 11
36.77708603188909
 21
-16.5
 31
0.0
 12
36.52708603188909
 22
-18.0
 32
0.0
 13
36.52708603188909
 23
-18.0
 33
0.0
  0
MTEXT
  5
1890
330
1889
100
AcDbEntity
  8
0
 62
     0
100
AcDbMText
 10
36.5270860318891
 20
-12.20833333333332
 30
0.0
 40
2.5
 41
0.0
 71
     5
 72
     1
  1
\A1;2.0
 11
0.0000000000000001
 21
1.0
 31
0.0
 73
     1
 44
1.0
  0
POINT
  5
1891
330
1889
100
AcDbEntity
  8
Defpoints
 62
     0
100
AcDbPoint
 10
34.34999999999999
 20
-20.0
 30
0.0
  0
POINT
  5
1892
330
1889
100
AcDbEntity
  8
Defpoints
 62
     0
100
AcDbPoint
 10
34.34999999999999
 20
-18.0
 30
0.0
  0
POINT
  5
1893
330
1889
100
AcDbEntity
  8
Defpoints
 62
     0
100
AcDbPoint
 10
36.52708603188909
 20
-18.0
 30
0.0
  0
ENDBLK
  5
1895
330
1889
100
AcDbEntity
  8
0
 62
     6
100
AcDbBlockEnd
  0
BLOCK
  5
191B
330
1910
100
AcDbEntity
  8
0
 62
     6
100
AcDbBlockBegin
  2
*D27
 70
     1
 10
0.0
 20
0.0
 30
0.0
  3
*D27
  1

  0
LINE
  5
1911
330
1910
100
AcDbEntity
  8
0
 62
     0
370
    -2
100
AcDbLine
 10
30.54999999999999
 20
-17.5
 30
0.0
 11
30.54999999999999
 21
-15.94074272574084
 31
0.0
  0
LINE
  5
1912
330
1910
100
AcDbEntity
  8
0
 62
     0
370
    -2
100
AcDbLine
 10
34.55
 20
-17.7
 30
0.0
 11
34.55
 21
-15.94074272574084
 31
0.0
  0
LINE
  5
1913
330
1910
100
AcDbEntity
  8
0
 62
     0
370
    -2
100
AcDbLine
 10
32.05
 20
-16.44074272574084
 30
0.0
 11
33.04999999999999
 21
-16.44074272574084
 31
0.0
  0
LINE
  5
1914
330
1910
100
AcDbEntity
  8
0
 62
     0
370
    -2
100
AcDbLine
 10
34.55
 20
-16.44074272574084
 30
0.0
 11
36.04999999999999
 21
-16.44074272574084
 31
0.0
  0
SOLID
  5
1915
330
1910
100
AcDbEntity
  8
0
 62
     0
100
AcDbTrace
 10
32.05
 20
-16.19074272574084
 30
0.0
 11
32.05
 21
-16.69074272574084
 31
0.0
 12
30.54999999999999
 22
-16.44074272574084
 32
0.0
 13
30.54999999999999
 23
-16.44074272574084
 33
0.0
  0
SOLID
  5
1916
330
1910
100
AcDbEntity
  8
0
 62
     0
100
AcDbTrace
 10
33.04999999999999
 20
-16.19074272574084
 30
0.0
 11
33.04999999999999
 21
-16.69074272574084
 31
0.0
 12
34.55
 22
-16.44074272574084
 32
0.0
 13
34.55
 23
-16.44074272574084
 33
0.0
  0
MTEXT
  5
1917
330
1910
100
AcDbEntity
  8
0
 62
     0
100
AcDbMText
 10
38.84166666666666
 20
-16.44074272574084
 30
0.0
 40
2.5
 41
0.0
 71
     5
 72
     1
  1
\A1;4.0
 73
     1
 44
1.0
  0
POINT
  5
1918
330
1910
100
AcDbEntity
  8
Defpoints
 62
     0
100
AcDbPoint
 10
30.54999999999999
 20
-18.0
 30
0.0
  0
POINT
  5
1919
330
1910
100
AcDbEntity
  8
Defpoints
 62
     0
100
AcDbPoint
 10
34.55
 20
-18.2
 30
0.0
  0
POINT
  5
191A
330
1910
100
AcDbEntity
  8
Defpoints
 62
     0
100
AcDbPoint
 10
34.55
 20
-16.44074272574084
 30
0.0
  0
ENDBLK
  5
191C
330
1910
100
AcDbEntity
  8
0
 62
     6
100
AcDbBlockEnd
  0
BLOCK
  5
1929
330
191E
100
AcDbEntity
  8
0
 62
     6
100
AcDbBlockBegin
  2
*D28
 70
     1
 10
0.0
 20
0.0
 30
0.0
  3
*D28
  1

  0
LINE
  5
191F
330
191E
100
AcDbEntity
  8
0
 62
     0
370
    -2
100
AcDbLine
 10
2.5
 20
-50.5
 30
0.0
 11
2.499999999999999
 21
-53.91909846545971
 31
0.0
  0
LINE
  5
1920
330
191E
100
AcDbEntity
  8
0
 62
     0
370
    -2
100
AcDbLine
 10
30.5
 20
-50.5
 30
0.0
 11
30.5
 21
-53.91909846545971
 31
0.0
  0
LINE
  5
1921
330
191E
100
AcDbEntity
  8
0
 62
     0
370
    -2
100
AcDbLine
 10
4.0
 20
-53.41909846545971
 30
0.0
 11
12.45833333333333
 21
-53.41909846545971
 31
0.0
  0
LINE
  5
1922
330
191E
100
AcDbEntity
  8
0
 62
     0
370
    -2
100
AcDbLine
 10
29.0
 20
-53.41909846545971
 30
0.0
 11
20.54166666666666
 21
-53.41909846545971
 31
0.0
  0
SOLID
  5
1923
330
191E
100
AcDbEntity
  8
0
 62
     0
100
AcDbTrace
 10
4.0
 20
-53.16909846545971
 30
0.0
 11
4.0
 21
-53.66909846545971
 31
0.0
 12
2.5
 22
-53.41909846545971
 32
0.0
 13
2.5
 23
-53.41909846545971
 33
0.0
  0
SOLID
  5
1924
330
191E
100
AcDbEntity
  8
0
 62
     0
100
AcDbTrace
 10
29.0
 20
-53.16909846545971
 30
0.0
 11
29.0
 21
-53.66909846545971
 31
0.0
 12
30.5
 22
-53.41909846545971
 32
0.0
 13
30.5
 23
-53.41909846545971
 33
0.0
  0
MTEXT
  5
1925
330
191E
100
AcDbEntity
  8
0
 62
     0
100
AcDbMText
 10
16.5
 20
-53.41909846545971
 30
0.0
 40
2.5
 41
0.0
 71
     5
 72
     1
  1
\A1;28.0
 73
     1
 44
1.0
  0
POINT
  5
1926
330
191E
100
AcDbEntity
  8
Defpoints
 62
     0
100
AcDbPoint
 10
2.5
 20
-50.0
 30
0.0
  0
POINT
  5
1927
330
191E
100
AcDbEntity
  8
Defpoints
 62
     0
100
AcDbPoint
 10
30.5
 20
-50.0
 30
0.0
  0
POINT
  5
1928
330
191E
100
AcDbEntity
  8
Defpoints
 62
     0
100
AcDbPoint
 10
30.5
 20
-53.41909846545971
 30
0.0
  0
ENDBLK
  5
192A
330
191E
100
AcDbEntity
  8
0
 62
     6
100
AcDbBlockEnd
  0
BLOCK
  5
1934
330
192C
100
AcDbEntity
  8
0
 62
     6
100
AcDbBlockBegin
  2
*D29
 70
     1
 10
0.0
 20
0.0
 30
0.0
  3
*D29
  1

  0
LINE
  5
1997
330
192C
100
AcDbEntity
  8
0
 62
     0
370
    -2
100
AcDbLine
 10
-80.89812642299881
 20
-19.76933838806711
 30
0.0
 11
-84.34561289891753
 21
-21.60199827701303
 31
0.0
  0
MTEXT
  5
1998
330
192C
100
AcDbEntity
  8
0
 62
     0
100
AcDbMText
 10
-76.40959299425947
 20
-17.38326516268881
 30
0.0
 40
2.5
 41
0.0
 71
     5
 72
     1
  1
\A1;\U+220520.0
 11
0.8829901827028214
 21
0.4693914541727811
 31
0.0
 73
     1
 44
1.0
  0
SOLID
  5
1999
330
192C
100
AcDbEntity
  8
0
 62
     0
100
AcDbTrace
 10
-84.46296076246074
 20
-21.38125073133732
 30
0.0
 11
-84.22826503537434
 21
-21.82274582268873
 31
0.0
 12
-85.67009817297178
 22
-22.3060854582722
 32
0.0
 13
-85.67009817297178
 23
-22.3060854582722
 33
0.0
  0
LINE
  5
199A
330
192C
100
AcDbEntity
  8
0
 62
     0
370
    -2
100
AcDbLine
 10
-94.59000000000001
 20
-27.00000000000001
 30
0.0
 11
-94.41
 21
-27.00000000000001
 31
0.0
  0
LINE
  5
199B
330
192C
100
AcDbEntity
  8
0
 62
     0
370
    -2
100
AcDbLine
 10
-94.50000000000002
 20
-27.09000000000001
 30
0.0
 11
-94.50000000000002
 21
-26.91000000000001
 31
0.0
  0
POINT
  5
199C
330
192C
100
AcDbEntity
  8
Defpoints
 62
     0
100
AcDbPoint
 10
-85.67009817297178
 20
-22.3060854582722
 30
0.0
  0
POINT
  5
199D
330
192C
100
AcDbEntity
  8
Defpoints
 62
     0
100
AcDbPoint
 10
-103.3299018270282
 20
-31.69391454172781
 30
0.0
  0
ENDBLK
  5
1935
330
192C
100
AcDbEntity
  8
0
 62
     6
100
AcDbBlockEnd
  0
BLOCK
  5
193F
330
1937
100
AcDbEntity
  8
0
 62
     6
100
AcDbBlockBegin
  2
*D30
 70
     1
 10
0.0
 20
0.0
 30
0.0
  3
*D30
  1

  0
LINE
  5
199E
330
1937
100
AcDbEntity
  8
0
 62
     0
370
    -2
100
AcDbLine
 10
-81.23167537338966
 20
-13.46069874225546
 30
0.0
 11
-82.95126301861342
 21
-15.2154052197475
 31
0.0
  0
MTEXT
  5
199F
330
1937
100
AcDbEntity
  8
0
 62
     0
100
AcDbMText
 10
-77.67373115185137
 20
-9.830091259450405
 30
0.0
 40
2.5
 41
0.0
 71
     5
 72
     1
  1
\A1;\U+220530.0
 11
0.6999234534173673
 21
0.7142178654698485
 31
0.0
 73
     1
 44
1.0
  0
SOLID
  5
19A0
330
1937
100
AcDbEntity
  8
0
 62
     0
100
AcDbTrace
 10
-83.12981748498089
 20
-15.04042435639316
 30
0.0
 11
-82.77270855224598
 21
-15.39038608310184
 31
0.0
 12
-84.00114819873948
 22
-16.28673201795227
 32
0.0
 13
-84.00114819873948
 23
-16.28673201795227
 33
0.0
  0
LINE
  5
19A1
330
1937
100
AcDbEntity
  8
0
 62
     0
370
    -2
100
AcDbLine
 10
-94.59000000000001
 20
-27.0
 30
0.0
 11
-94.41
 21
-27.0
 31
0.0
  0
LINE
  5
19A2
330
1937
100
AcDbEntity
  8
0
 62
     0
370
    -2
100
AcDbLine
 10
-94.50000000000001
 20
-27.09
 30
0.0
 11
-94.50000000000001
 21
-26.91000000000001
 31
0.0
  0
POINT
  5
19A3
330
1937
100
AcDbEntity
  8
Defpoints
 62
     0
100
AcDbPoint
 10
-84.00114819873948
 20
-16.28673201795227
 30
0.0
  0
POINT
  5
19A4
330
1937
100
AcDbEntity
  8
Defpoints
 62
     0
100
AcDbPoint
 10
-104.9988518012604
 20
-37.71326798204774
 30
0.0
  0
ENDBLK
  5
1940
330
1937
100
AcDbEntity
  8
0
 62
     6
100
AcDbBlockEnd
  0
BLOCK
  5
1956
330
194B
100
AcDbEntity
  8
0
 62
     5
100
AcDbBlockBegin
  2
*D31
 70
     1
 10
0.0
 20
0.0
 30
0.0
  3
*D31
  1

  0
LINE
  5
194C
330
194B
100
AcDbEntity
  8
0
 62
     0
370
    -2
100
AcDbLine
 10
-27.11999999999999
 20
-100.0
 30
0.0
 11
-30.10474813492726
 21
-100.0
 31
0.0
  0
LINE
  5
194D
330
194B
100
AcDbEntity
  8
0
 62
     0
370
    -2
100
AcDbLine
 10
-27.11999999999999
 20
-74.0
 30
0.0
 11
-30.10474813492726
 21
-74.0
 31
0.0
  0
LINE
  5
194E
330
194B
100
AcDbEntity
  8
0
 62
     0
370
    -2
100
AcDbLine
 10
-29.60474813492727
 20
-98.50000000000001
 30
0.0
 11
-29.60474813492727
 21
-91.04166666666667
 31
0.0
  0
LINE
  5
194F
330
194B
100
AcDbEntity
  8
0
 62
     0
370
    -2
100
AcDbLine
 10
-29.60474813492726
 20
-75.5
 30
0.0
 11
-29.60474813492726
 21
-82.95833333333332
 31
0.0
  0
SOLID
  5
1950
330
194B
100
AcDbEntity
  8
0
 62
     0
100
AcDbTrace
 10
-29.85474813492727
 20
-98.50000000000001
 30
0.0
 11
-29.35474813492726
 21
-98.50000000000001
 31
0.0
 12
-29.60474813492727
 22
-100.0
 32
0.0
 13
-29.60474813492727
 23
-100.0
 33
0.0
  0
SOLID
  5
1951
330
194B
100
AcDbEntity
  8
0
 62
     0
100
AcDbTrace
 10
-29.85474813492726
 20
-75.5
 30
0.0
 11
-29.35474813492726
 21
-75.5
 31
0.0
 12
-29.60474813492726
 22
-74.0
 32
0.0
 13
-29.60474813492726
 23
-74.0
 33
0.0
  0
MTEXT
  5
1952
330
194B
100
AcDbEntity
  8
0
 62
     0
100
AcDbMText
 10
-29.60474813492725
 20
-87.0
 30
0.0
 40
2.5
 41
0.0
 71
     5
 72
     1
  1
\A1;26.0
 11
0.0000000000000001
 21
1.0
 31
0.0
 73
     1
 44
1.0
  0
POINT
  5
1953
330
194B
100
AcDbEntity
  8
Defpoints
 62
     0
100
AcDbPoint
 10
-26.61999999999999
 20
-100.0
 30
0.0
  0
POINT
  5
1954
330
194B
100
AcDbEntity
  8
Defpoints
 62
     0
100
AcDbPoint
 10
-26.61999999999999
 20
-74.0
 30
0.0
  0
POINT
  5
1955
330
194B
100
AcDbEntity
  8
Defpoints
 62
     0
100
AcDbPoint
 10
-29.60474813492726
 20
-74.0
 30
0.0
  0
ENDBLK
  5
1957
330
194B
100
AcDbEntity
  8
0
 62
     5
100
AcDbBlockEnd
  0
BLOCK
  5
1964
330
1959
100
AcDbEntity
  8
0
 62
     5
100
AcDbBlockBegin
  2
*D32
 70
     1
 10
0.0
 20
0.0
 30
0.0
  3
*D32
  1

  0
LINE
  5
197A
330
1959
100
AcDbEntity
  8
0
 62
     0
370
    -2
100
AcDbLine
 10
-26.61999999999998
 20
-73.5
 30
0.0
 11
-26.61999999999998
 21
-70.59254789564369
 31
0.0
  0
LINE
  5
197B
330
1959
100
AcDbEntity
  8
0
 62
     0
370
    -2
100
AcDbLine
 10
-21.61999999999999
 20
-73.5
 30
0.0
 11
-21.61999999999999
 21
-70.59254789564369
 31
0.0
  0
LINE
  5
197C
330
1959
100
AcDbEntity
  8
0
 62
     0
370
    -2
100
AcDbLine
 10
-25.11999999999998
 20
-71.09254789564369
 30
0.0
 11
-23.11999999999998
 21
-71.09254789564369
 31
0.0
  0
LINE
  5
197D
330
1959
100
AcDbEntity
  8
0
 62
     0
370
    -2
100
AcDbLine
 10
-21.61999999999999
 20
-71.09254789564369
 30
0.0
 11
-20.11999999999999
 21
-71.09254789564369
 31
0.0
  0
SOLID
  5
197E
330
1959
100
AcDbEntity
  8
0
 62
     0
100
AcDbTrace
 10
-25.11999999999998
 20
-70.84254789564369
 30
0.0
 11
-25.11999999999998
 21
-71.34254789564369
 31
0.0
 12
-26.61999999999998
 22
-71.09254789564369
 32
0.0
 13
-26.61999999999998
 23
-71.09254789564369
 33
0.0
  0
SOLID
  5
197F
330
1959
100
AcDbEntity
  8
0
 62
     0
100
AcDbTrace
 10
-23.11999999999998
 20
-70.84254789564369
 30
0.0
 11
-23.11999999999998
 21
-71.34254789564369
 31
0.0
 12
-21.61999999999999
 22
-71.09254789564369
 32
0.0
 13
-21.61999999999999
 23
-71.09254789564369
 33
0.0
  0
MTEXT
  5
1980
330
1959
100
AcDbEntity
  8
0
 62
     0
100
AcDbMText
 10
-17.32833333333332
 20
-71.09254789564369
 30
0.0
 40
2.5
 41
0.0
 71
     5
 72
     1
  1
\A1;5.0
 73
     1
 44
1.0
  0
POINT
  5
1981
330
1959
100
AcDbEntity
  8
Defpoints
 62
     0
100
AcDbPoint
 10
-26.61999999999998
 20
-74.0
 30
0.0
  0
POINT
  5
1982
330
1959
100
AcDbEntity
  8
Defpoints
 62
     0
100
AcDbPoint
 10
-21.61999999999999
 20
-74.0
 30
0.0
  0
POINT
  5
1983
330
1959
100
AcDbEntity
  8
Defpoints
 62
     0
100
AcDbPoint
 10
-21.61999999999999
 20
-71.09254789564369
 30
0.0
  0
ENDBLK
  5
1965
330
1959
100
AcDbEntity
  8
0
 62
     5
100
AcDbBlockEnd
  0
BLOCK
  5
198E
330
1986
100
AcDbEntity
  8
0
 62
     5
100
AcDbBlockBegin
  2
*D33
 70
     1
 10
0.0
 20
0.0
 30
0.0
  3
*D33
  1

  0
LINE
  5
1987
330
1986
100
AcDbEntity
  8
0
 62
     0
370
    -2
100
AcDbLine
 10
-89.23492487446104
 20
-50.61291490517989
 30
0.0
 11
-90.36315525850509
 21
-49.6244331397842
 31
0.0
  0
MTEXT
  5
1988
330
1986
100
AcDbEntity
  8
0
 62
     0
100
AcDbMText
 10
-86.19497078412008
 20
-53.27632410638495
 30
0.0
 40
2.5
 41
0.0
 71
     5
 72
     1
  1
\A1;\U+22058.0
 11
0.7521535893627095
 21
-0.658987843597128
 31
0.0
 73
     1
 44
1.0
  0
SOLID
  5
1989
330
1986
100
AcDbEntity
  8
0
 62
     0
100
AcDbTrace
 10
-90.19840829760582
 20
-49.43639474244353
 30
0.0
 11
-90.52790221940439
 21
-49.81247153712487
 31
0.0
 12
-91.49138564254917
 22
-48.6359513743885
 32
0.0
 13
-91.49138564254917
 23
-48.6359513743885
 33
0.0
  0
LINE
  5
198A
330
1986
100
AcDbEntity
  8
0
 62
     0
370
    -2
100
AcDbLine
 10
-94.59000000000001
 20
-45.99999999999998
 30
0.0
 11
-94.41
 21
-45.99999999999998
 31
0.0
  0
LINE
  5
198B
330
1986
100
AcDbEntity
  8
0
 62
     0
370
    -2
100
AcDbLine
 10
-94.50000000000001
 20
-46.08999999999999
 30
0.0
 11
-94.50000000000001
 21
-45.91
 31
0.0
  0
POINT
  5
198C
330
1986
100
AcDbEntity
  8
Defpoints
 62
     0
100
AcDbPoint
 10
-91.49138564254917
 20
-48.6359513743885
 30
0.0
  0
POINT
  5
198D
330
1986
100
AcDbEntity
  8
Defpoints
 62
     0
100
AcDbPoint
 10
-97.50861435745086
 20
-43.36404862561148
 30
0.0
  0
ENDBLK
  5
198F
330
1986
100
AcDbEntity
  8
0
 62
     5
100
AcDbBlockEnd
  0
ENDSEC
  0
SECTION
  2
ENTITIES
  0
LINE
  5
24
330
1E
100
AcDbEntity
  8
ﾌﾗﾝｼﾞ
 62
     1
100
AcDbLine
 10
77.06872
 20
-9.201629999999997
 30
0.0
 11
80.00764999999999
 21
-13.24671
 31
0.0
  0
LINE
  5
25
330
1E
100
AcDbEntity
  8
ﾌﾗﾝｼﾞ
 62
     1
100
AcDbLine
 10
69.07676000000001
 20
-20.201627
 30
0.0
 11
73.83204
 21
-21.746712
 31
0.0
  0
LINE
  5
26
330
1E
100
AcDbEntity
  8
ﾌﾗﾝｼﾞ
 62
     1
100
AcDbLine
 10
110.92324
 20
-20.201627
 30
0.0
 11
106.1679599999999
 21
-21.746712
 31
0.0
  0
LINE
  5
27
330
1E
100
AcDbEntity
  8
ﾌﾗﾝｼﾞ
 62
     1
100
AcDbLine
 10
99.99235
 20
-13.24671
 30
0.0
 11
102.93128
 21
-9.201629999999997
 31
0.0
  0
CIRCLE
  5
28
330
1E
100
AcDbEntity
  8
ﾌﾗﾝｼﾞ
 62
     1
100
AcDbCircle
 10
90.0
 20
-27.0
 30
0.0
 40
23.0
  0
CIRCLE
  5
29
330
1E
100
AcDbEntity
  8
ﾌﾗﾝｼﾞ
100
AcDbCircle
 10
97.10739100000001
 20
-5.125699999999998
 30
0.0
 40
1.5
  0
LINE
  5
2A
330
1E
100
AcDbEntity
  8
ﾌﾗﾝｼﾞ
 62
     1
100
AcDbLine
 10
96.18034000000001
 20
-7.978870000000011
 30
0.0
 11
98.343459
 21
-1.321470000000008
 31
0.0
  0
LINE
  5
2B
330
1E
100
AcDbEntity
  8
ﾌﾗﾝｼﾞ
 62
     1
100
AcDbLine
 10
81.65654100000001
 20
-1.321470000000008
 30
0.0
 11
83.81966
 21
-7.978870000000011
 31
0.0
  0
LINE
  5
2C
330
1E
100
AcDbEntity
  8
ﾌﾗﾝｼﾞ
 62
     1
100
AcDbLine
 10
68.15654000000001
 20
-11.1298
 30
0.0
 11
73.81966
 21
-15.2443
 31
0.0
  0
CIRCLE
  5
2D
330
1E
100
AcDbEntity
  8
ﾌﾗﾝｼﾞ
100
AcDbCircle
 10
82.892609
 20
-5.125699999999998
 30
0.0
 40
1.5
  0
CIRCLE
  5
2E
330
1E
100
AcDbEntity
  8
ﾌﾗﾝｼﾞ
100
AcDbCircle
 10
71.39261000000002
 20
-13.48093999999999
 30
0.0
 40
1.5
  0
CIRCLE
  5
2F
330
1E
100
AcDbEntity
  8
ﾌﾗﾝｼﾞ
100
AcDbCircle
 10
67.0
 20
-27.0
 30
0.0
 40
1.5
  0
CIRCLE
  5
30
330
1E
100
AcDbEntity
  8
ﾌﾗﾝｼﾞ
100
AcDbCircle
 10
71.39261000000002
 20
-40.51905999999999
 30
0.0
 40
1.5
  0
CIRCLE
  5
31
330
1E
100
AcDbEntity
  8
ﾌﾗﾝｼﾞ
100
AcDbCircle
 10
108.6073899999999
 20
-13.48093999999999
 30
0.0
 40
1.5
  0
CIRCLE
  5
32
330
1E
100
AcDbEntity
  8
ﾌﾗﾝｼﾞ
100
AcDbCircle
 10
113.0
 20
-27.0
 30
0.0
 40
1.5
  0
CIRCLE
  5
33
330
1E
100
AcDbEntity
  8
ﾌﾗﾝｼﾞ
100
AcDbCircle
 10
108.6073899999999
 20
-40.51905999999999
 30
0.0
 40
1.5
  0
CIRCLE
  5
34
330
1E
100
AcDbEntity
  8
ﾌﾗﾝｼﾞ
100
AcDbCircle
 10
97.10739100000001
 20
-48.87430000000001
 30
0.0
 40
1.5
  0
CIRCLE
  5
35
102
{ACAD_REACTORS
330
5E9
102
}
330
1E
100
AcDbEntity
  8
ﾌﾗﾝｼﾞ
100
AcDbCircle
 10
82.892609
 20
-48.87430000000001
 30
0.0
 40
1.5
  0
LINE
  5
36
330
1E
100
AcDbEntity
  8
ﾌﾗﾝｼﾞ
 62
     1
100
AcDbLine
 10
90.0
 20
-49.0
 30
0.0
 11
90.0
 21
-44.0
 31
0.0
  0
LINE
  5
37
330
1E
100
AcDbEntity
  8
ﾌﾗﾝｼﾞ
 62
     1
100
AcDbLine
 10
99.99235
 20
-40.75329
 30
0.0
 11
102.93128
 21
-44.79837
 31
0.0
  0
LINE
  5
38
330
1E
100
AcDbEntity
  8
ﾌﾗﾝｼﾞ
 62
     1
100
AcDbLine
 10
106.1679599999999
 20
-32.25328799999999
 30
0.0
 11
110.92324
 21
-33.798373
 31
0.0
  0
LINE
  5
39
330
1E
100
AcDbEntity
  8
ﾌﾗﾝｼﾞ
 62
     1
100
AcDbLine
 10
73.83204
 20
-32.25328799999999
 30
0.0
 11
69.07676000000001
 21
-33.798373
 31
0.0
  0
LINE
  5
3A
330
1E
100
AcDbEntity
  8
ﾌﾗﾝｼﾞ
 62
     1
100
AcDbLine
 10
77.06872
 20
-44.79837
 30
0.0
 11
80.00764999999999
 21
-40.75329
 31
0.0
  0
LINE
  5
3B
330
1E
100
AcDbEntity
  8
ﾌﾗﾝｼﾞ
 62
     1
100
AcDbLine
 10
96.18034000000001
 20
-46.02112999999998
 30
0.0
 11
98.343459
 21
-52.67852999999999
 31
0.0
  0
LINE
  5
3C
102
{ACAD_REACTORS
330
5E9
102
}
330
1E
100
AcDbEntity
  8
ﾌﾗﾝｼﾞ
 62
     1
100
AcDbLine
 10
81.65654100000001
 20
-52.67852999999999
 30
0.0
 11
83.81966
 21
-46.02112999999998
 31
0.0
  0
LINE
  5
3D
330
1E
100
AcDbEntity
  8
ﾌﾗﾝｼﾞ
 62
     1
100
AcDbLine
 10
106.18034
 20
-38.7557
 30
0.0
 11
111.84346
 21
-42.8702
 31
0.0
  0
LINE
  5
3E
330
1E
100
AcDbEntity
  8
ﾌﾗﾝｼﾞ
 62
     1
100
AcDbLine
 10
117.0
 20
-27.0
 30
0.0
 11
110.0
 21
-27.0
 31
0.0
  0
LINE
  5
3F
330
1E
100
AcDbEntity
  8
ﾌﾗﾝｼﾞ
 62
     1
100
AcDbLine
 10
68.15654000000001
 20
-42.8702
 30
0.0
 11
73.81966
 21
-38.75571
 31
0.0
  0
LINE
  5
40
330
1E
100
AcDbEntity
  8
ﾌﾗﾝｼﾞ
 62
     1
100
AcDbLine
 10
106.18034
 20
-15.24429
 30
0.0
 11
111.84346
 21
-11.1298
 31
0.0
  0
CIRCLE
  5
41
102
{ACAD_REACTORS
330
5E9
102
}
330
1E
100
AcDbEntity
  8
ﾌﾗﾝｼﾞ
 62
     1
100
AcDbCircle
 10
90.0
 20
-27.0
 30
0.0
 40
23.0
  0
LINE
  5
42
330
1E
100
AcDbEntity
  8
ﾌﾗﾝｼﾞ
  6
CENTER2
 62
     1
100
AcDbLine
 10
90.0
 20
-44.0
 30
0.0
 11
90.0
 21
6.533818747688599
 31
0.0
  0
LINE
  5
43
330
1E
100
AcDbEntity
  8
ﾌﾗﾝｼﾞ
  6
CENTER2
 62
     1
100
AcDbLine
 10
107.0
 20
-27.0
 30
0.0
 11
73.0
 21
-27.0
 31
0.0
  0
ARC
  5
44
330
1E
100
AcDbEntity
  8
ﾌﾗﾝｼﾞ
100
AcDbCircle
 10
90.0
 20
-27.0
 30
0.0
 40
26.0
100
AcDbArc
 50
269.9999689891658
 51
90.00003101083409
  0
ARC
  5
45
330
1E
100
AcDbEntity
  8
ﾌﾗﾝｼﾞ
100
AcDbCircle
 10
90.0
 20
-27.0
 30
0.0
 40
26.0
100
AcDbArc
 50
90.00003101083409
 51
270.0000930330749
  0
CIRCLE
  5
46
330
1E
100
AcDbEntity
  8
ﾌﾗﾝｼﾞ
 62
     1
100
AcDbCircle
 10
90.0
 20
-27.0
 30
0.0
 40
19.0
  0
CIRCLE
  5
47
330
1E
100
AcDbEntity
  8
ﾌﾗﾝｼﾞ
 62
     5
100
AcDbCircle
 10
90.0
 20
-8.0
 30
0.0
 40
3.0
  0
CIRCLE
  5
48
330
1E
100
AcDbEntity
  8
ﾌﾗﾝｼﾞ
 62
     5
100
AcDbCircle
 10
78.83208
 20
-11.62868
 30
0.0
 40
3.0
  0
CIRCLE
  5
49
330
1E
100
AcDbEntity
  8
ﾌﾗﾝｼﾞ
 62
     5
100
AcDbCircle
 10
71.92993
 20
-21.128678
 30
0.0
 40
3.0
  0
CIRCLE
  5
4A
330
1E
100
AcDbEntity
  8
ﾌﾗﾝｼﾞ
 62
     5
100
AcDbCircle
 10
78.83208
 20
-42.37131999999999
 30
0.0
 40
3.0
  0
CIRCLE
  5
4B
330
1E
100
AcDbEntity
  8
ﾌﾗﾝｼﾞ
 62
     5
100
AcDbCircle
 10
71.92993
 20
-32.871324
 30
0.0
 40
3.0
  0
CIRCLE
  5
4C
330
1E
100
AcDbEntity
  8
ﾌﾗﾝｼﾞ
 62
     5
100
AcDbCircle
 10
90.0
 20
-46.0
 30
0.0
 40
3.0
  0
CIRCLE
  5
4D
330
1E
100
AcDbEntity
  8
ﾌﾗﾝｼﾞ
 62
     5
100
AcDbCircle
 10
101.1679199999999
 20
-42.37131999999999
 30
0.0
 40
3.0
  0
CIRCLE
  5
4E
330
1E
100
AcDbEntity
  8
ﾌﾗﾝｼﾞ
 62
     5
100
AcDbCircle
 10
108.0700699999999
 20
-32.871322
 30
0.0
 40
3.0
  0
CIRCLE
  5
4F
330
1E
100
AcDbEntity
  8
ﾌﾗﾝｼﾞ
 62
     5
100
AcDbCircle
 10
108.0700699999999
 20
-21.128676
 30
0.0
 40
3.0
  0
CIRCLE
  5
50
330
1E
100
AcDbEntity
  8
ﾌﾗﾝｼﾞ
 62
     5
100
AcDbCircle
 10
101.1679199999999
 20
-11.62868
 30
0.0
 40
3.0
  0
LINE
  5
51
330
1E
100
AcDbEntity
  8
ﾌﾗﾝｼﾞ
100
AcDbLine
 10
38.55
 20
-53.0
 30
0.0
 11
38.55
 21
-1.000000000000003
 31
0.0
  0
LINE
  5
52
102
{ACAD_REACTORS
330
132E
102
}
330
1E
100
AcDbEntity
  8
BASE
100
AcDbLine
 10
30.5
 20
-90.0
 30
0.0
 11
30.5
 21
-37.0
 31
0.0
  0
LINE
  5
53
330
1E
100
AcDbEntity
  8
ﾌﾗﾝｼﾞ
100
AcDbLine
 10
30.54999999999999
 20
-1.000000000000003
 30
0.0
 11
38.55
 21
-1.000000000000003
 31
0.0
  0
LINE
  5
54
330
1E
100
AcDbEntity
  8
ﾌﾗﾝｼﾞ
100
AcDbLine
 10
30.54999999999999
 20
-53.0
 30
0.0
 11
38.55
 21
-53.0
 31
0.0
  0
LINE
  5
55
330
1E
100
AcDbEntity
  8
ﾌﾗﾝｼﾞ
100
AcDbLine
 10
34.69999999999999
 20
-2.500000000000003
 30
0.0
 11
45.19999999999999
 21
-2.500000000000003
 31
0.0
  0
LINE
  5
56
330
1E
100
AcDbEntity
  8
ﾌﾗﾝｼﾞ
100
AcDbLine
 10
34.69999999999999
 20
-5.500000000000014
 30
0.0
 11
45.19999999999999
 21
-5.500000000000014
 31
0.0
  0
LINE
  5
57
330
1E
100
AcDbEntity
  8
ﾌﾗﾝｼﾞ
100
AcDbLine
 10
45.44999999999999
 20
-5.250000000000003
 30
0.0
 11
45.44999999999999
 21
-2.750000000000003
 31
0.0
  0
LINE
  5
58
330
1E
100
AcDbEntity
  8
ﾌﾗﾝｼﾞ
100
AcDbLine
 10
34.44999999999999
 20
-5.500000000000014
 30
0.0
 11
34.44999999999999
 21
-2.500000000000003
 31
0.0
  0
LINE
  5
59
330
1E
100
AcDbEntity
  8
ﾌﾗﾝｼﾞ
100
AcDbLine
 10
45.19999999999999
 20
-2.500000000000003
 30
0.0
 11
45.44999999999999
 21
-2.750000000000003
 31
0.0
  0
LINE
  5
5A
330
1E
100
AcDbEntity
  8
ﾌﾗﾝｼﾞ
100
AcDbLine
 10
45.19999999999999
 20
-5.500000000000014
 30
0.0
 11
45.44999999999999
 21
-5.250000000000003
 31
0.0
  0
LINE
  5
5B
330
1E
100
AcDbEntity
  8
ﾌﾗﾝｼﾞ
100
AcDbLine
 10
34.69999999999999
 20
-2.500000000000003
 30
0.0
 11
34.44999999999999
 21
-2.750000000000003
 31
0.0
  0
LINE
  5
5C
330
1E
100
AcDbEntity
  8
ﾌﾗﾝｼﾞ
100
AcDbLine
 10
34.44999999999999
 20
-5.250000000000003
 30
0.0
 11
34.69999999999999
 21
-5.500000000000014
 31
0.0
  0
LINE
  5
5D
330
1E
100
AcDbEntity
  8
0
 62
     1
370
     9
100
AcDbLine
 10
29.5
 20
-4.000000000000003
 30
0.0
 11
49.4764294949141
 21
-4.000000000000003
 31
0.0
  0
LINE
  5
5E
330
1E
100
AcDbEntity
  8
BASE
 62
     1
100
AcDbLine
 10
10.54999999999999
 20
-46.0
 30
0.0
 11
41.95248616279541
 21
-46.0
 31
0.0
  0
LINE
  5
5F
330
1E
100
AcDbEntity
  8
ﾌﾗﾝｼﾞ
100
AcDbLine
 10
30.54999999999999
 20
-43.0
 30
0.0
 11
38.55
 21
-43.0
 31
0.0
  0
LINE
  5
60
330
1E
100
AcDbEntity
  8
ﾌﾗﾝｼﾞ
100
AcDbLine
 10
30.54999999999999
 20
-49.0
 30
0.0
 11
38.55
 21
-49.0
 31
0.0
  0
LINE
  5
61
102
{ACAD_REACTORS
330
12E9
102
}
330
1E
100
AcDbEntity
  8
BASE
100
AcDbLine
 10
30.5
 20
-17.0
 30
0.0
 11
0.0
 21
-17.0
 31
0.0
  0
LINE
  5
62
102
{ACAD_REACTORS
330
132E
102
}
330
1E
100
AcDbEntity
  8
BASE
100
AcDbLine
 10
30.5
 20
-37.0
 30
0.0
 11
0.0
 21
-37.0
 31
0.0
  0
LINE
  5
63
102
{ACAD_REACTORS
330
132E
102
}
330
1E
100
AcDbEntity
  8
BASE
100
AcDbLine
 10
2.5
 20
-42.0
 30
0.0
 11
30.5
 21
-42.0
 31
0.0
  0
LINE
  5
64
102
{ACAD_REACTORS
330
132E
102
}
330
1E
100
AcDbEntity
  8
BASE
100
AcDbLine
 10
2.5
 20
-50.0
 30
0.0
 11
30.5
 21
-50.0
 31
0.0
  0
LINE
  5
67
102
{ACAD_REACTORS
330
132E
102
}
330
1E
100
AcDbEntity
  8
BASE
100
AcDbLine
 10
0.0
 20
-90.0
 30
0.0
 11
30.5
 21
-90.0
 31
0.0
  0
LINE
  5
68
102
{ACAD_REACTORS
330
12E9
102
}
330
1E
100
AcDbEntity
  8
BASE
100
AcDbLine
 10
1.0
 20
-0.0000000000000036
 30
0.0
 11
29.5
 21
-0.0000000000000036
 31
0.0
  0
LINE
  5
6A
330
1E
100
AcDbEntity
  8
ﾌﾗﾝｼﾞ
 62
     5
100
AcDbLine
 10
38.55
 20
-24.0
 30
0.0
 11
30.05
 21
-24.0
 31
0.0
  0
LINE
  5
6B
330
1E
100
AcDbEntity
  8
ﾌﾗﾝｼﾞ
 62
     5
100
AcDbLine
 10
38.55
 20
-30.0
 30
0.0
 11
30.05
 21
-30.0
 31
0.0
  0
LINE
  5
6C
330
1E
100
AcDbEntity
  8
ﾌﾗﾝｼﾞ
 62
     5
100
AcDbLine
 10
30.0
 20
-24.6
 30
0.0
 11
20.0
 21
-24.6
 31
0.0
  0
LINE
  5
6D
330
1E
100
AcDbEntity
  8
ﾌﾗﾝｼﾞ
 62
     5
100
AcDbLine
 10
20.0
 20
-29.4
 30
0.0
 11
30.0
 21
-29.4
 31
0.0
  0
LINE
  5
6E
330
1E
100
AcDbEntity
  8
ﾌﾗﾝｼﾞ
 62
     5
100
AcDbLine
 10
30.0
 20
-24.0
 30
0.0
 11
20.59999999999999
 21
-24.0
 31
0.0
  0
LINE
  5
6F
330
1E
100
AcDbEntity
  8
ﾌﾗﾝｼﾞ
 62
     5
100
AcDbLine
 10
30.0
 20
-30.0
 30
0.0
 11
20.59999999999999
 21
-30.0
 31
0.0
  0
LINE
  5
70
330
1E
100
AcDbEntity
  8
ﾌﾗﾝｼﾞ
 62
     5
100
AcDbLine
 10
20.0
 20
-29.4
 30
0.0
 11
20.0
 21
-24.6
 31
0.0
  0
LINE
  5
71
330
1E
100
AcDbEntity
  8
ﾌﾗﾝｼﾞ
 62
     5
100
AcDbLine
 10
44.79999999999999
 20
-22.0
 30
0.0
 11
39.55
 21
-22.0
 31
0.0
  0
LINE
  5
72
330
1E
100
AcDbEntity
  8
ﾌﾗﾝｼﾞ
 62
     5
100
AcDbLine
 10
44.79999999999999
 20
-32.0
 30
0.0
 11
39.55
 21
-32.0
 31
0.0
  0
LINE
  5
73
330
1E
100
AcDbEntity
  8
ﾌﾗﾝｼﾞ
 62
     5
100
AcDbLine
 10
39.55
 20
-33.0
 30
0.0
 11
39.55
 21
-21.0
 31
0.0
  0
LINE
  5
74
330
1E
100
AcDbEntity
  8
ﾌﾗﾝｼﾞ
 62
     5
100
AcDbLine
 10
45.54999999999999
 20
-31.25
 30
0.0
 11
45.54999999999999
 21
-22.75
 31
0.0
  0
ARC
  5
75
330
1E
100
AcDbEntity
  8
ﾌﾗﾝｼﾞ
 62
     5
100
AcDbCircle
 10
44.79999999999999
 20
-22.75
 30
0.0
 40
0.75
100
AcDbArc
 50
0.0
 51
90.00003101083409
  0
ARC
  5
76
330
1E
100
AcDbEntity
  8
ﾌﾗﾝｼﾞ
 62
     5
100
AcDbCircle
 10
44.79999999999999
 20
-31.25
 30
0.0
 40
0.75
100
AcDbArc
 50
269.9999689891658
 51
0.0
  0
LINE
  5
77
330
1E
100
AcDbEntity
  8
ﾌﾗﾝｼﾞ
 62
     5
100
AcDbLine
 10
29.9
 20
-24.6
 30
0.0
 11
30.5
 21
-24.0
 31
0.0
  0
LINE
  5
78
330
1E
100
AcDbEntity
  8
ﾌﾗﾝｼﾞ
 62
     5
100
AcDbLine
 10
30.5
 20
-30.0
 30
0.0
 11
29.9
 21
-29.4
 31
0.0
  0
LINE
  5
79
330
1E
100
AcDbEntity
  8
ﾌﾗﾝｼﾞ
 62
     5
100
AcDbLine
 10
20.59999999999999
 20
-30.0
 30
0.0
 11
20.0
 21
-29.4
 31
0.0
  0
LINE
  5
7A
330
1E
100
AcDbEntity
  8
ﾌﾗﾝｼﾞ
 62
     5
100
AcDbLine
 10
20.0
 20
-24.6
 30
0.0
 11
20.59999999999999
 21
-24.0
 31
0.0
  0
LINE
  5
7B
330
1E
100
AcDbEntity
  8
ﾌﾗﾝｼﾞ
 62
     5
100
AcDbLine
 10
29.9
 20
-29.4
 30
0.0
 11
29.9
 21
-24.6
 31
0.0
  0
LINE
  5
7C
330
1E
100
AcDbEntity
  8
ﾌﾗﾝｼﾞ
 62
     5
100
AcDbLine
 10
20.59999999999999
 20
-30.0
 30
0.0
 11
20.59999999999999
 21
-24.0
 31
0.0
  0
LINE
  5
7E
330
1E
100
AcDbEntity
  8
BASE
 62
     1
100
AcDbLine
 10
30.5
 20
-37.0
 30
0.0
 11
30.5
 21
-17.0
 31
0.0
  0
LINE
  5
7F
330
1E
100
AcDbEntity
  8
ﾌﾗﾝｼﾞ
 62
     5
100
AcDbLine
 10
39.55
 20
-21.0
 30
0.0
 11
38.55
 21
-21.0
 31
0.0
  0
LINE
  5
80
330
1E
100
AcDbEntity
  8
ﾌﾗﾝｼﾞ
 62
     5
100
AcDbLine
 10
39.55
 20
-33.0
 30
0.0
 11
38.55
 21
-33.0
 31
0.0
  0
LINE
  5
81
102
{ACAD_REACTORS
330
18E1
102
}
330
1E
100
AcDbEntity
  8
ﾌﾗﾝｼﾞ
 62
     5
100
AcDbLine
 10
-0.05
 20
-12.0
 30
0.0
 11
-7.069999999999993
 21
-12.0
 31
0.0
  0
LINE
  5
82
102
{ACAD_REACTORS
330
18E1
102
}
330
1E
100
AcDbEntity
  8
ﾌﾗﾝｼﾞ
 62
     5
100
AcDbLine
 10
-7.069999999999993
 20
-42.0
 30
0.0
 11
-0.05
 21
-42.0
 31
0.0
  0
LINE
  5
86
102
{ACAD_REACTORS
330
18AB
330
18E1
102
}
330
1E
100
AcDbEntity
  8
ﾌﾗﾝｼﾞ
 62
     5
100
AcDbLine
 10
4.85000000000002
 20
-29.0
 30
0.0
 11
-11.55
 21
-29.0
 31
0.0
  0
LINE
  5
88
330
1E
100
AcDbEntity
  8
ﾌﾗﾝｼﾞ
 62
     5
100
AcDbLine
 10
-10.95
 20
-28.4
 30
0.0
 11
5.45
 21
-28.4
 31
0.0
  0
ARC
  5
89
330
1E
100
AcDbEntity
  8
BASE
100
AcDbCircle
 10
27.8542486889
 20
-46.0
 30
0.0
 40
4.0
100
AcDbArc
 50
0.0
 51
180.0000620222408
  0
LINE
  5
8A
102
{ACAD_REACTORS
330
132E
102
}
330
1E
100
AcDbEntity
  8
BASE
100
AcDbLine
 10
2.5
 20
-50.0
 30
0.0
 11
2.5
 21
-42.0
 31
0.0
  0
ARC
  5
8B
330
1E
100
AcDbEntity
  8
BASE
100
AcDbCircle
 10
27.8542486889
 20
-46.0
 30
0.0
 40
4.0
100
AcDbArc
 50
179.999937977759
 51
0.0
  0
LINE
  5
8D
102
{ACAD_REACTORS
330
132E
102
}
330
1E
100
AcDbEntity
  8
BASE
100
AcDbLine
 10
0.0
 20
-90.0
 30
0.0
 11
0.0
 21
-37.0
 31
0.0
  0
LINE
  5
8E
102
{ACAD_REACTORS
330
12E9
102
}
330
1E
100
AcDbEntity
  8
BASE
100
AcDbLine
 10
0.0
 20
-17.0
 30
0.0
 11
0.0
 21
-12.0
 31
0.0
  0
LINE
  5
8F
330
1E
100
AcDbEntity
  8
ﾌﾗﾝｼﾞ
 62
     5
100
AcDbLine
 10
5.45
 20
-28.4
 30
0.0
 11
5.45
 21
-27.0
 31
0.0
  0
LINE
  5
91
330
1E
100
AcDbEntity
  8
ﾌﾗﾝｼﾞ
 62
     5
100
AcDbLine
 10
-10.95
 20
-28.4
 30
0.0
 11
-10.95
 21
-27.0
 31
0.0
  0
LINE
  5
94
330
1E
100
AcDbEntity
  8
ﾌﾗﾝｼﾞ
 62
     5
100
AcDbLine
 10
4.85000000000002
 20
-29.0
 30
0.0
 11
5.45
 21
-28.4
 31
0.0
  0
LINE
  5
95
102
{ACAD_REACTORS
330
18AB
102
}
330
1E
100
AcDbEntity
  8
ﾌﾗﾝｼﾞ
 62
     5
100
AcDbLine
 10
-13.55
 20
-31.0
 30
0.0
 11
-10.95
 21
-28.4
 31
0.0
  0
LINE
  5
96
330
1E
100
AcDbEntity
  8
BASE
 62
     1
100
AcDbLine
 10
0.0
 20
-37.0
 30
0.0
 11
0.0
 21
-17.0
 31
0.0
  0
DIMENSION
  5
F2
330
1E
100
AcDbEntity
  8
0
  6
Continuous
 62
     1
370
     9
100
AcDbDimension
  2
*D0
 10
42.15967717635975
 20
-50.0
 30
0.0
 11
42.15967717635976
 21
-46.0
 31
0.0
 70
   160
 71
     5
 42
8.000000000000007
  3
Standard
100
AcDbAlignedDimension
 13
30.54999999999999
 23
-42.0
 33
0.0
 14
30.54999999999999
 24
-50.0
 34
0.0
 50
90.0
100
AcDbRotatedDimension
  0
DIMENSION
  5
100
330
1E
100
AcDbEntity
  8
0
  6
Continuous
 62
     1
370
     9
100
AcDbDimension
  2
*D1
 10
15.5
 20
-17.0
 30
0.0
 11
15.5
 21
-27.0
 31
0.0
 70
    32
 71
     5
 42
20.0
  3
Standard
100
AcDbAlignedDimension
 13
15.5
 23
-37.0
 33
0.0
 14
15.5
 24
-17.0
 34
0.0
 50
90.0
100
AcDbRotatedDimension
  0
DIMENSION
  5
10E
330
1E
100
AcDbEntity
  8
0
  6
Continuous
 62
     1
370
     9
100
AcDbDimension
  2
*D2
 10
-1.77184886692362
 20
-12.0
 30
0.0
 11
-1.771848866923619
 21
-27.0
 31
0.0
 70
   160
 71
     5
 42
29.99999999999999
  3
Standard
100
AcDbAlignedDimension
 13
-1.771848866923627
 23
-42.0
 33
0.0
 14
-1.77184886692362
 24
-12.0
 34
0.0
 50
90.0
100
AcDbRotatedDimension
  0
DIMENSION
  5
11C
330
1E
100
AcDbEntity
  8
0
  6
Continuous
 62
     1
370
     9
100
AcDbDimension
  2
*D3
 10
11.1570135697276
 20
-27.0
 30
0.0
 11
11.1570135697276
 21
-65.21051879841952
 31
0.0
 70
   160
 71
     5
 42
63.00000000000001
  3
Standard
100
AcDbAlignedDimension
 13
10.97701356972758
 23
-90.00000000000001
 33
0.0
 14
11.1570135697276
 24
-27.0
 34
0.0
 50
90.0
100
AcDbRotatedDimension
  0
DIMENSION
  5
15E
330
1E
100
AcDbEntity
  8
0
  6
Continuous
 62
     5
370
     9
100
AcDbDimension
  2
*D4
 10
69.02767166107134
 20
-33.63086105249909
 30
0.0
 11
81.64443360669183
 21
-30.32898469927392
 31
0.0
 70
    35
 71
     5
 42
6.000000000000021
  3
Standard
100
AcDbDiametricDimension
 15
74.8321883389287
 25
-32.11178694750093
 35
0.0
 40
0.0
1001
ACAD
1000
DSTYLE
1002
{
1070
   288
1070
     1
1002
}
  0
DIMENSION
  5
169
330
1E
100
AcDbEntity
  8
0
  6
Continuous
 62
     5
370
     9
100
AcDbDimension
  2
*D5
 10
95.8470362421276
 20
-48.06096987987142
 30
0.0
 11
106.0348980733027
 21
-54.63538461131631
 31
0.0
 70
   163
 71
     5
 42
3.000000000000014
  3
Standard
100
AcDbDiametricDimension
 15
98.36774575787243
 25
-49.68763012012859
 35
0.0
 40
0.0
1001
ACAD
1000
DSTYLE
1002
{
1070
   288
1070
     1
1002
}
  0
CIRCLE
  5
175
330
1E
100
AcDbEntity
  8
ﾌﾗﾝｼﾞ
  6
Continuous
100
AcDbCircle
 10
90.0
 20
-27.0
 30
0.0
 40
3.0
  0
DIMENSION
  5
316
330
1E
100
AcDbEntity
  8
0
  6
Continuous
 62
     1
370
     9
100
AcDbDimension
  2
*D6
 10
0.0000000000000012
 20
3.424338511130937
 30
0.0
 11
5.541666666666666
 21
3.424338511130937
 31
0.0
 70
    32
 71
     5
 42
7.069999999999994
  3
Standard
100
AcDbAlignedDimension
 13
-7.069999999999993
 23
-12.0
 33
0.0
 14
0.000000000000001
 24
0.0000000000000036
 34
0.0
100
AcDbRotatedDimension
1001
ACAD
1000
DSTYLE
1002
{
1070
   271
1070
     2
1002
}
  0
DIMENSION
  5
332
330
1E
100
AcDbEntity
  8
0
 62
     1
370
    15
100
AcDbDimension
  2
*D7
 10
38.5
 20
3.424338511130937
 30
0.0
 11
34.5
 21
3.424338511130937
 31
0.0
 70
    32
 71
     5
 42
8.0
  3
Standard
100
AcDbAlignedDimension
 13
30.5
 23
-4.654390401797915
 33
0.0
 14
38.5
 24
-5.654390401797915
 34
0.0
100
AcDbRotatedDimension
1001
ACAD
1000
DSTYLE
1002
{
1070
   279
1070
     1
1002
}
  0
LINE
  5
421
102
{ACAD_REACTORS
330
12E9
102
}
330
1E
100
AcDbEntity
  8
BASE
  6
Continuous
100
AcDbLine
 10
30.5
 20
-17.0
 30
0.0
 11
30.5
 21
-1.000000000000003
 31
0.0
  0
LINE
  5
422
102
{ACAD_REACTORS
330
12E9
102
}
330
1E
100
AcDbEntity
  8
BASE
  6
Continuous
100
AcDbLine
 10
29.5
 20
-0.0000000000000036
 30
0.0
 11
30.5
 21
-1.000000000000003
 31
0.0
  0
LINE
  5
4E3
330
1E
100
AcDbEntity
  8
0
 62
     1
370
     9
100
AcDbLine
 10
42.99999999999999
 20
-9.969655114602893
 30
0.0
 11
42.99999999999999
 21
1.969655114602886
 31
0.0
  0
DIMENSION
  5
4E4
330
1E
100
AcDbEntity
  8
0
  6
Continuous
 62
     5
370
     9
100
AcDbDimension
  2
*D8
 10
42.99999999999999
 20
3.487485756547638
 30
0.0
 11
47.49999999999999
 21
3.487485756547638
 31
0.0
 70
    32
 71
     5
 42
4.499999999999992
  3
Standard
100
AcDbAlignedDimension
 13
38.5
 23
-1.000000000000003
 33
0.0
 14
42.99999999999999
 24
-0.0000000000000036
 34
0.0
100
AcDbRotatedDimension
  0
LINE
  5
4FC
330
1E
100
AcDbEntity
  8
0
  6
Continuous
 62
     4
370
     9
100
AcDbLine
 10
29.5
 20
-0.0000000000000036
 30
0.0
 11
44.40247408665288
 21
-0.0000000000000036
 31
0.0
  0
LINE
  5
4FD
330
1E
100
AcDbEntity
  8
ﾌﾗﾝｼﾞ
  6
Continuous
 62
     4
370
    15
100
AcDbLine
 10
39.32438147833677
 20
-18.5
 30
0.0
 11
102.2907003890368
 21
-18.5
 31
0.0
  0
LINE
  5
4FE
330
1E
100
AcDbEntity
  8
0
  6
Continuous
 62
     4
370
     9
100
AcDbLine
 10
42.99999999999999
 20
-9.969655114602893
 30
0.0
 11
42.99999999999999
 21
-18.5
 31
0.0
  0
CIRCLE
  5
4FF
330
1E
100
AcDbEntity
  8
ﾌﾗﾝｼﾞ
  6
Continuous
100
AcDbCircle
 10
90.0
 20
-27.0
 30
0.0
 40
5.0
  0
DIMENSION
  5
514
330
1E
100
AcDbEntity
  8
0
  6
Continuous
 62
     5
370
     9
100
AcDbDimension
  2
*D9
 10
47.92982788619099
 20
-4.000000000000005
 30
0.0
 11
47.92982788619099
 21
-11.24999999999999
 31
0.0
 70
    32
 71
     5
 42
14.49999999999999
  3
Standard
100
AcDbAlignedDimension
 13
42.99999999999999
 23
-18.5
 33
0.0
 14
42.99999999999999
 24
-4.000000000000003
 34
0.0
 50
90.0
100
AcDbRotatedDimension
  0
DIMENSION
  5
522
330
1E
100
AcDbEntity
  8
0
  6
Continuous
 62
     5
370
     9
100
AcDbDimension
  2
*D10
 10
47.92982788619099
 20
-0.0000000000000046
 30
0.0
 11
50.14482788619099
 21
-2.000000000000005
 31
0.0
 70
   160
 71
     5
 42
4.0
  3
Standard
100
AcDbAlignedDimension
 13
42.99999999999999
 23
-4.000000000000003
 33
0.0
 14
44.40247408665288
 24
-0.0000000000000036
 34
0.0
 50
90.0
100
AcDbRotatedDimension
1001
ACAD
1000
DSTYLE
1002
{
1070
   279
1070
     1
1002
}
  0
HATCH
  5
5E9
330
1E
100
AcDbEntity
  8
ﾌﾗﾝｼﾞ
  6
Continuous
 62
     3
100
AcDbHatch
 10
0.0
 20
0.0
 30
0.0
210
0.0
220
0.0
230
1.0
  2
_USER
 70
     0
 71
     1
 91
        4
 92
        7
 72
     1
 73
     1
 93
        4
 10
84.33355011391109
 20
-49.29105977042013
 42
0.0705026382835357
 10
84.39260899999998
 20
-48.87430000000001
 42
0.3249196669260277
 10
83.35613464282788
 20
-47.44771527470641
 42
0.0
 10
82.8926094689994
 20
-48.87429998513879
 42
0.0163086794893115
 97
        3
330
3C
330
41
330
35
 92
        7
 72
     1
 73
     1
 93
        3
 10
83.35613464282786
 20
-47.44771527470641
 42
0.4046929454674588
 10
81.48189790788993
 20
-48.3645017903154
 42
0.016308689088659
 10
82.8926094689994
 20
-48.87429998513879
 42
0.0
 97
        3
330
35
330
41
330
3C
 92
        7
 72
     1
 73
     1
 93
        4
 10
82.8926094689994
 20
-48.87429998513879
 42
-0.016308689088659
 10
81.48189790788993
 20
-48.3645017903154
 42
0.0869113069828273
 10
81.392609
 20
-48.87430000000001
 42
0.3249198296120284
 10
82.42908419686489
 20
-50.30088499812615
 42
0.0
 97
        3
330
41
330
35
330
3C
 92
        7
 72
     1
 73
     1
 93
        3
 10
82.8926094689994
 20
-48.87429998513879
 42
0.0
 10
82.42908419686489
 20
-50.30088499812615
 42
0.4237985941597622
 10
84.33355011391109
 20
-49.29105977042013
 42
-0.0163086794893115
 97
        3
330
41
330
3C
330
35
 75
     0
 76
     0
 52
45.0
 41
0.2
 77
     0
 78
     1
 53
45.0
 43
90.0
 44
-27.0
 45
-0.1414213562373095
 46
0.1414213562373095
 79
     0
 47
0.0413723500077802
 98
        4
 10
83.61575240200853
 20
-48.55277033570207
 10
82.78772973210516
 20
-48.13904686479236
 10
82.16671245867848
 20
-49.25610026722711
 10
83.4915491641226
 20
-49.58707916786898
  0
HATCH
  5
5EA
330
1E
100
AcDbEntity
  8
ﾌﾗﾝｼﾞ
  6
Continuous
 62
     3
100
AcDbHatch
 10
0.0
 20
0.0
 30
0.0
210
0.0
220
0.0
230
1.0
  2
_USER
 70
     0
 71
     0
 91
        4
 92
        7
 72
     1
 73
     1
 93
        4
 10
96.64386549925673
 20
-47.44771522854032
 42
0.0
 10
97.10739121024698
 20
-48.87429976443828
 42
0.0163086794893117
 10
98.51810193540309
 20
-48.36450185279502
 42
0.0705026382835368
 10
98.32091633111611
 20
-47.99262217369346
 42
0.3249196669260288
 97
        0
 92
        7
 72
     1
 73
     1
 93
        3
 10
96.64386549925673
 20
-47.44771522854032
 42
0.4046929454674621
 10
95.6664497225857
 20
-49.29105981198311
 42
0.0163086890886589
 10
97.10739121024698
 20
-48.87429976443828
 42
0.0
 97
        0
 92
        7
 72
     1
 73
     1
 93
        4
 10
97.10739121024698
 20
-48.87429976443828
 42
-0.0163086890886589
 10
95.6664497225857
 20
-49.29105981198311
 42
0.0869113069828259
 10
95.89386534799126
 20
-49.75597793057088
 42
0.3249198296120274
 10
97.57091701954331
 20
-50.30088460289116
 42
0.0
 97
        0
 92
        7
 72
     1
 73
     1
 93
        3
 10
98.51810193540309
 20
-48.36450185279502
 42
-0.0163086794893116
 10
97.10739121024698
 20
-48.87429976443828
 42
0.0
 10
97.57091701954331
 20
-50.30088460289116
 42
0.4237985941597623
 97
        0
 75
     0
 76
     0
 52
81.0
 41
0.2
 77
     0
 78
     1
 53
80.99999999999999
 43
90.0
 44
-27.0
 45
-0.1975376681190275
 46
0.0312868930080462
 79
     0
 47
0.0413723500077802
 98
        4
 10
97.50343574629983
 20
-48.18912406252625
 10
96.59037077989232
 20
-48.34111425752154
 10
96.74454476786401
 20
-49.60985423845468
 10
98.01090469395729
 20
-49.0989023166977
  0
HATCH
  5
5EB
330
1E
100
AcDbEntity
  8
ﾌﾗﾝｼﾞ
  6
Continuous
 62
     3
100
AcDbHatch
 10
0.0
 20
0.0
 30
0.0
210
0.0
220
0.0
230
1.0
  2
_USER
 70
     0
 71
     0
 91
        4
 92
        7
 72
     1
 73
     1
 93
        4
 10
107.3938655516523
 20
-39.63738295735065
 42
0.0
 10
108.6073910805224
 20
-40.51906051382616
 42
0.0163086794893117
 10
109.4490283372073
 20
-39.27743038011232
 42
0.0705026382835368
 10
109.0709164412899
 20
-39.09247619002071
 42
0.3249196669260288
 97
        0
 92
        7
 72
     1
 73
     1
 93
        3
 10
107.3938655516523
 20
-39.63738295735065
 42
0.4046929454674621
 10
107.6866103387961
 20
-41.70319063073011
 42
0.0163086890886589
 10
108.6073910805224
 20
-40.51906051382615
 42
0.0
 97
        0
 92
        7
 72
     1
 73
     1
 93
        4
 10
108.6073910805224
 20
-40.51906051382615
 42
-0.0163086890886589
 10
107.6866103387961
 20
-41.70319063073011
 42
0.0869113069828259
 10
108.1438654581651
 20
-41.94564573890618
 42
0.3249198296120274
 10
109.8209168667612
 20
-41.40073825729085
 42
0.0
 97
        0
 92
        7
 72
     1
 73
     1
 93
        3
 10
109.4490283372073
 20
-39.27743038011232
 42
-0.0163086794893116
 10
108.6073910805224
 20
-40.51906051382615
 42
0.0
 10
109.8209168667612
 20
-41.40073825729085
 42
0.4237985941597623
 97
        0
 75
     0
 76
     0
 52
117.0
 41
0.2
 77
     0
 78
     1
 53
116.9999999999999
 43
90.0
 44
-27.0
 45
-0.1782013048376736
 46
-0.0907980999479094
 79
     0
 47
0.0413723500077802
 98
        4
 10
108.5250616679055
 20
-39.73195258930365
 10
107.8757141882247
 20
-40.39160136167247
 10
108.7461902143707
 20
-41.32741237127345
 10
109.4703669113363
 20
-40.1696958946117
  0
HATCH
  5
5EC
330
1E
100
AcDbEntity
  8
ﾌﾗﾝｼﾞ
  6
Continuous
 62
     3
100
AcDbHatch
 10
0.0
 20
0.0
 30
0.0
210
0.0
220
0.0
230
1.0
  2
_USER
 70
     0
 71
     0
 91
        4
 92
        7
 72
     1
 73
     1
 93
        4
 10
111.5000001590626
 20
-26.9999999253017
 42
0.0
 10
113.0
 20
-26.99999964289906
 42
0.0163086794893117
 10
112.9510869623582
 20
-25.50079779673725
 42
0.0705026382835368
 10
112.5364746675002
 20
-25.57341530990889
 42
0.3249196669260288
 97
        0
 92
        7
 72
     1
 73
     1
 93
        3
 10
111.5000001590626
 20
-26.9999999253017
 42
0.4046929454674621
 10
112.9510869513617
 20
-28.49920237160722
 42
0.0163086890886589
 10
113.0
 20
-26.99999964289906
 42
0.0
 97
        0
 92
        7
 72
     1
 73
     1
 93
        4
 10
113.0
 20
-26.99999964289906
 42
-0.0163086890886589
 10
112.9510869513617
 20
-28.49920237160722
 42
0.0869113069828259
 10
113.463525650625
 20
-28.42658485879436
 42
0.3249198296120274
 10
114.5000001590624
 20
-26.99999936049636
 42
0.0
 97
        0
 92
        7
 72
     1
 73
     1
 93
        3
 10
112.9510869623582
 20
-25.50079779673725
 42
-0.0163086794893116
 10
113.0
 20
-26.99999964289906
 42
0.0
 10
114.5000001590624
 20
-26.99999936049636
 42
0.4237985941597623
 97
        0
 75
     0
 76
     0
 52
152.9999999999999
 41
0.2
 77
     0
 78
     1
 53
152.9999999999999
 43
90.0
 44
-27.0
 45
-0.0907980999479095
 46
-0.1782013048376736
 79
     0
 47
0.0413723500077802
 98
        4
 10
112.4707436760591
 20
-26.41160797011931
 10
112.333142349834
 20
-27.3269519094539
 10
113.5874281585585
 20
-27.57238594910149
 10
113.4928107420162
 20
-26.21011326228399
  0
HATCH
  5
5ED
330
1E
100
AcDbEntity
  8
ﾌﾗﾝｼﾞ
  6
Continuous
 62
     3
100
AcDbHatch
 10
0.0
 20
0.0
 30
0.0
210
0.0
220
0.0
230
1.0
  2
_USER
 70
     0
 71
     0
 91
        4
 92
        7
 72
     1
 73
     1
 93
        4
 10
107.3938654638391
 20
-14.36261692178496
 42
0.0
 10
108.6073906607251
 20
-13.48093890837239
 42
0.0163086794893117
 10
107.6866104466429
 20
-12.29680949899982
 42
0.0705026382835368
 10
107.3938655573263
 20
-12.59926129358164
 42
0.3249196669260288
 97
        0
 92
        7
 72
     1
 73
     1
 93
        3
 10
107.3938654638391
 20
-14.36261692178496
 42
0.4046929454674621
 10
109.4490284272613
 20
-14.72256976254481
 42
0.0163086890886589
 10
108.6073906607251
 20
-13.48093890837239
 42
0.0
 97
        0
 92
        7
 72
     1
 73
     1
 93
        4
 10
108.6073906607251
 20
-13.48093890837239
 42
-0.0163086890886589
 10
109.4490284272613
 20
-14.72256976254481
 42
0.0869113069828259
 10
109.8209165404512
 20
-14.36261705045906
 42
0.3249198296120274
 10
109.8209161149796
 20
-12.59926070797053
 42
0.0
 97
        0
 92
        7
 72
     1
 73
     1
 93
        3
 10
107.6866104466429
 20
-12.29680949899982
 42
-0.0163086794893116
 10
108.6073906607251
 20
-13.48093890837239
 42
0.0
 10
109.8209161149796
 20
-12.59926070797053
 42
0.4237985941597623
 97
        0
 75
     0
 76
     0
 52
188.9999999999999
 41
0.2
 77
     0
 78
     1
 53
188.9999999999999
 43
90.0
 44
-27.0
 45
0.0312868930080461
 46
-0.1975376681190276
 79
     0
 47
0.0413723500077802
 98
        4
 10
107.8333653524449
 20
-13.31600910763983
 10
108.2600692093964
 20
-14.13741794051061
 10
109.4190702533733
 20
-13.59872754905562
 10
108.5417993605146
 20
-12.55224051650101
  0
HATCH
  5
5EE
330
1E
100
AcDbEntity
  8
ﾌﾗﾝｼﾞ
  6
Continuous
 62
     3
100
AcDbHatch
 10
0.0
 20
0.0
 30
0.0
210
0.0
220
0.0
230
1.0
  2
_USER
 70
     0
 71
     0
 91
        4
 92
        7
 72
     1
 73
     1
 93
        4
 10
96.64386535717213
 20
-6.552284725293596
 42
0.0
 10
97.10739053100063
 20
-5.125700014861212
 42
0.0163086794893117
 10
95.6664498860889
 20
-4.708940229579866
 42
0.0705026382835368
 10
95.60739100000001
 20
-5.125700000000001
 42
0.3249196669260288
 97
        0
 92
        7
 72
     1
 73
     1
 93
        3
 10
96.64386535717213
 20
-6.552284725293596
 42
0.4046929454674621
 10
98.51810209211009
 20
-5.635498209684598
 42
0.0163086890886589
 10
97.10739053100063
 20
-5.125700014861212
 42
0.0
 97
        0
 92
        7
 72
     1
 73
     1
 93
        4
 10
97.10739053100063
 20
-5.125700014861212
 42
-0.0163086890886589
 10
98.51810209211009
 20
-5.635498209684598
 42
0.0869113069828259
 10
98.60739100000001
 20
-5.125700000000001
 42
0.3249198296120274
 10
97.57091580313513
 20
-3.69911500187386
 42
0.0
 97
        0
 92
        7
 72
     1
 73
     1
 93
        3
 10
95.6664498860889
 20
-4.708940229579866
 42
-0.0163086794893116
 10
97.10739053100063
 20
-5.125700014861212
 42
0.0
 10
97.57091580313513
 20
-3.69911500187386
 42
0.4237985941597623
 97
        0
 75
     0
 76
     0
 52
224.9999999999999
 41
0.2
 77
     0
 78
     1
 53
224.9999999999999
 43
90.0
 44
-27.0
 45
0.1414213562373094
 46
-0.1414213562373096
 79
     0
 47
0.0413723500077802
 98
        4
 10
96.3842475979915
 20
-5.447229664297939
 10
97.21227026789485
 20
-5.86095313520764
 10
97.83328754132153
 20
-4.743899732772892
 10
96.50845083587741
 20
-4.412920832131025
  0
HATCH
  5
5EF
330
1E
100
AcDbEntity
  8
ﾌﾗﾝｼﾞ
  6
Continuous
 62
     3
100
AcDbHatch
 10
0.0
 20
0.0
 30
0.0
210
0.0
220
0.0
230
1.0
  2
_USER
 70
     0
 71
     0
 91
        4
 92
        7
 72
     1
 73
     1
 93
        4
 10
83.35613450074328
 20
-6.552284771459678
 42
0.0
 10
82.89260878975303
 20
-5.125700235561726
 42
0.0163086794893117
 10
81.48189806459692
 20
-5.63549814720497
 42
0.0705026382835368
 10
81.67908366888388
 20
-6.007377826306537
 42
0.3249196669260288
 97
        0
 92
        7
 72
     1
 73
     1
 93
        3
 10
83.35613450074328
 20
-6.552284771459678
 42
0.4046929454674621
 10
84.33355027741432
 20
-4.708940188016885
 42
0.0163086890886589
 10
82.89260878975303
 20
-5.125700235561726
 42
0.0
 97
        0
 92
        7
 72
     1
 73
     1
 93
        4
 10
82.89260878975303
 20
-5.125700235561726
 42
-0.0163086890886589
 10
84.33355027741432
 20
-4.708940188016885
 42
0.0869113069828259
 10
84.10613465200873
 20
-4.244022069429121
 42
0.3249198296120274
 10
82.42908298045668
 20
-3.69911539710884
 42
0.0
 97
        0
 92
        7
 72
     1
 73
     1
 93
        3
 10
81.48189806459692
 20
-5.63549814720497
 42
-0.0163086794893116
 10
82.89260878975303
 20
-5.125700235561726
 42
0.0
 10
82.42908298045668
 20
-3.69911539710884
 42
0.4237985941597623
 97
        0
 75
     0
 76
     0
 52
-99.00000000000003
 41
0.2
 77
     0
 78
     1
 53
260.9999999999999
 43
90.0
 44
-27.0
 45
0.1975376681190275
 46
-0.0312868930080463
 79
     0
 47
0.0413723500077802
 98
        4
 10
82.49656425370018
 20
-5.810875937473749
 10
83.40962922010771
 20
-5.658885742478453
 10
83.255455232136
 20
-4.390145761545305
 10
81.98909530604273
 20
-4.901097683302289
  0
HATCH
  5
5F0
330
1E
100
AcDbEntity
  8
ﾌﾗﾝｼﾞ
  6
Continuous
 62
     3
100
AcDbHatch
 10
0.0
 20
0.0
 30
0.0
210
0.0
220
0.0
230
1.0
  2
_USER
 70
     0
 71
     0
 91
        4
 92
        7
 72
     1
 73
     1
 93
        4
 10
72.60613444834771
 20
-14.36261704264933
 42
0.0
 10
71.39260891947755
 20
-13.48093948617383
 42
0.0163086794893117
 10
70.55097166279264
 20
-14.72256961988766
 42
0.0705026382835368
 10
70.92908355871006
 20
-14.90752380997927
 42
0.3249196669260288
 97
        0
 92
        7
 72
     1
 73
     1
 93
        3
 10
72.60613444834771
 20
-14.36261704264933
 42
0.4046929454674621
 10
72.31338966120387
 20
-12.29680936926987
 42
0.0163086890886589
 10
71.39260891947755
 20
-13.48093948617383
 42
0.0
 97
        0
 92
        7
 72
     1
 73
     1
 93
        4
 10
71.39260891947755
 20
-13.48093948617383
 42
-0.0163086890886589
 10
72.31338966120387
 20
-12.29680936926987
 42
0.0869113069828259
 10
71.8561345418349
 20
-12.05435426109381
 42
0.3249198296120274
 10
70.17908313323876
 20
-12.59926174270914
 42
0.0
 97
        0
 92
        7
 72
     1
 73
     1
 93
        3
 10
70.55097166279264
 20
-14.72256961988766
 42
-0.0163086794893116
 10
71.39260891947755
 20
-13.48093948617383
 42
0.0
 10
70.17908313323876
 20
-12.59926174270914
 42
0.4237985941597623
 97
        0
 75
     0
 76
     0
 52
-63.00000000000006
 41
0.2
 77
     0
 78
     1
 53
296.9999999999999
 43
90.0
 44
-27.0
 45
0.1782013048376736
 46
0.0907980999479092
 79
     0
 47
0.0413723500077802
 98
        4
 10
71.47493833209448
 20
-14.26804741069632
 10
72.12428581177526
 20
-13.60839863832751
 10
71.25380978562926
 20
-12.67258762872653
 10
70.52963308866366
 20
-13.83030410538828
  0
HATCH
  5
5F1
330
1E
100
AcDbEntity
  8
ﾌﾗﾝｼﾞ
  6
Continuous
 62
     3
100
AcDbHatch
 10
0.0
 20
0.0
 30
0.0
210
0.0
220
0.0
230
1.0
  2
_USER
 70
     0
 71
     0
 91
        4
 92
        7
 72
     1
 73
     1
 93
        4
 10
68.49999984093736
 20
-27.00000007469828
 42
0.0
 10
67.0
 20
-27.00000035710091
 42
0.0163086794893117
 10
67.04891303764172
 20
-28.49920220326273
 42
0.0705026382835368
 10
67.46352533249979
 20
-28.42658469009109
 42
0.3249196669260288
 97
        0
 92
        7
 72
     1
 73
     1
 93
        3
 10
68.49999984093736
 20
-27.00000007469828
 42
0.4046929454674621
 10
67.04891304863825
 20
-25.50079762839276
 42
0.0163086890886589
 10
67.0
 20
-27.00000035710091
 42
0.0
 97
        0
 92
        7
 72
     1
 73
     1
 93
        4
 10
67.0
 20
-27.00000035710091
 42
-0.0163086890886589
 10
67.04891304863825
 20
-25.50079762839276
 42
0.0869113069828259
 10
66.53647434937494
 20
-25.57341514120563
 42
0.3249198296120274
 10
65.49999984093755
 20
-27.00000063950362
 42
0.0
 97
        0
 92
        7
 72
     1
 73
     1
 93
        3
 10
67.04891303764172
 20
-28.49920220326273
 42
-0.0163086794893116
 10
67.0
 20
-27.00000035710091
 42
0.0
 10
65.49999984093755
 20
-27.00000063950362
 42
0.4237985941597623
 97
        0
 75
     0
 76
     0
 52
-27.00000000000006
 41
0.2
 77
     0
 78
     1
 53
332.9999999999999
 43
90.0
 44
-27.0
 45
0.0907980999479095
 46
0.1782013048376735
 79
     0
 47
0.0413723500077802
 98
        4
 10
67.52925632394087
 20
-27.58839202988068
 10
67.66685765016593
 20
-26.67304809054609
 10
66.41257184144144
 20
-26.42761405089849
 10
66.50718925798376
 20
-27.78988673771599
  0
HATCH
  5
5F2
330
1E
100
AcDbEntity
  8
ﾌﾗﾝｼﾞ
  6
Continuous
 62
     3
100
AcDbHatch
 10
0.0
 20
0.0
 30
0.0
210
0.0
220
0.0
230
1.0
  2
_USER
 70
     0
 71
     0
 91
        4
 92
        7
 72
     1
 73
     1
 93
        4
 10
72.6061345361608
 20
-39.63738307821502
 42
0.0
 10
71.39260933927485
 20
-40.51906109162759
 42
0.0163086794893117
 10
72.31338955335707
 20
-41.70319050100016
 42
0.0705026382835368
 10
72.6061344426736
 20
-41.40073870641835
 42
0.3249196669260288
 97
        0
 92
        7
 72
     1
 73
     1
 93
        3
 10
72.6061345361608
 20
-39.63738307821502
 42
0.4046929454674621
 10
70.55097157273862
 20
-39.27743023745517
 42
0.0163086890886589
 10
71.39260933927487
 20
-40.51906109162759
 42
0.0
 97
        0
 92
        7
 72
     1
 73
     1
 93
        4
 10
71.39260933927487
 20
-40.51906109162759
 42
-0.0163086890886589
 10
70.55097157273862
 20
-39.27743023745517
 42
0.0869113069828259
 10
70.17908345954876
 20
-39.63738294954093
 42
0.3249198296120274
 10
70.17908388502036
 20
-41.40073929202945
 42
0.0
 97
        0
 92
        7
 72
     1
 73
     1
 93
        3
 10
72.31338955335707
 20
-41.70319050100016
 42
-0.0163086794893116
 10
71.39260933927487
 20
-40.51906109162759
 42
0.0
 10
70.17908388502036
 20
-41.40073929202945
 42
0.4237985941597623
 97
        0
 75
     0
 76
     0
 52
8.999999999999936
 41
0.2
 77
     0
 78
     1
 53
8.999999999999934
 43
90.0
 44
-27.0
 45
-0.031286893008046
 46
0.1975376681190276
 79
     0
 47
0.0413723500077802
 98
        4
 10
72.16663464755507
 20
-40.68399089236016
 10
71.73993079060352
 20
-39.86258205948938
 10
70.58092974662667
 20
-40.40127245094438
 10
71.4582006394854
 20
-41.44775948349897
  0
LINE
  5
627
330
1E
100
AcDbEntity
  8
ﾌﾗﾝｼﾞ
 62
     5
100
AcDbLine
 10
-13.55
 20
-31.0
 30
0.0
 11
-13.55
 21
-27.0
 31
0.0
  0
LINE
  5
628
102
{ACAD_REACTORS
330
18AB
102
}
330
1E
100
AcDbEntity
  8
ﾌﾗﾝｼﾞ
 62
     5
100
AcDbLine
 10
-13.55
 20
-23.0
 30
0.0
 11
-10.95
 21
-25.6
 31
0.0
  0
LINE
  5
629
102
{ACAD_REACTORS
330
18AB
330
18E1
102
}
330
1E
100
AcDbEntity
  8
ﾌﾗﾝｼﾞ
 62
     5
100
AcDbLine
 10
4.85000000000002
 20
-25.0
 30
0.0
 11
-11.55
 21
-25.0
 31
0.0
  0
LINE
  5
62A
330
1E
100
AcDbEntity
  8
ﾌﾗﾝｼﾞ
 62
     5
100
AcDbLine
 10
5.45
 20
-25.6
 30
0.0
 11
5.45
 21
-27.0
 31
0.0
  0
LINE
  5
62B
330
1E
100
AcDbEntity
  8
ﾌﾗﾝｼﾞ
 62
     5
100
AcDbLine
 10
-10.95
 20
-25.6
 30
0.0
 11
5.45
 21
-25.6
 31
0.0
  0
LINE
  5
62C
330
1E
100
AcDbEntity
  8
ﾌﾗﾝｼﾞ
 62
     5
100
AcDbLine
 10
4.85000000000002
 20
-25.0
 30
0.0
 11
5.45
 21
-25.6
 31
0.0
  0
LINE
  5
62D
330
1E
100
AcDbEntity
  8
ﾌﾗﾝｼﾞ
 62
     5
100
AcDbLine
 10
-10.95
 20
-25.6
 30
0.0
 11
-10.95
 21
-27.00000000000001
 31
0.0
  0
LINE
  5
62E
330
1E
100
AcDbEntity
  8
ﾌﾗﾝｼﾞ
 62
     5
100
AcDbLine
 10
-13.55
 20
-23.0
 30
0.0
 11
-13.55
 21
-27.0
 31
0.0
  0
LINE
  5
68D
330
1E
100
AcDbEntity
  8
ﾌﾗﾝｼﾞ
  6
CENTER2
 62
     1
100
AcDbLine
 10
-21.13364881040922
 20
-26.99999999999999
 30
0.0
 11
-26.06635118959074
 21
-26.99999999999999
 31
0.0
  0
LINE
  5
6B9
102
{ACAD_REACTORS
330
12E9
102
}
330
1E
100
AcDbEntity
  8
BASE
100
AcDbLine
 10
0.0
 20
-12.0
 30
0.0
 11
0.0
 21
-1.000000000000003
 31
0.0
  0
LINE
  5
76A
330
1E
100
AcDbEntity
  8
ﾌﾗﾝｼﾞ
  6
CENTER2
 62
     1
100
AcDbLine
 10
51.18905991890722
 20
-27.0
 30
0.0
 11
-18.55545344322523
 21
-26.99999999999999
 31
0.0
  0
LINE
  5
76B
330
1E
100
AcDbEntity
  8
0
  6
Continuous
 62
     1
370
     9
100
AcDbLine
 10
-0.0625
 20
-0.0000000000000036
 30
0.0
 11
-18.50545344322523
 21
0.0
 31
0.0
  0
LINE
  5
76C
330
1E
100
AcDbEntity
  8
0
  6
Continuous
 62
     1
370
     9
100
AcDbLine
 10
-3.756329911082218
 20
-25.8
 30
0.0
 11
-3.756329911082218
 21
-16.83333333333332
 31
0.0
  0
LINE
  5
76D
330
1E
100
AcDbEntity
  8
0
  6
Continuous
 62
     1
370
     9
100
AcDbLine
 10
-3.756329911082218
 20
-1.199999999999999
 30
0.0
 11
-3.756329911082218
 21
-10.16666666666666
 31
0.0
  0
SOLID
  5
76E
330
1E
100
AcDbEntity
  8
0
  6
Continuous
 62
     1
370
     9
100
AcDbTrace
 10
-3.956329911082221
 20
-25.8
 30
0.0
 11
-3.556329911082215
 21
-25.8
 31
0.0
 12
-3.756329911082218
 22
-27.0
 32
0.0
 13
-3.756329911082218
 23
-27.0
 33
0.0
  0
SOLID
  5
76F
330
1E
100
AcDbEntity
  8
0
  6
Continuous
 62
     1
370
     9
100
AcDbTrace
 10
-3.956329911082221
 20
-1.199999999999999
 30
0.0
 11
-3.556329911082215
 21
-1.199999999999999
 31
0.0
 12
-3.756329911082218
 22
0.0
 32
0.0
 13
-3.756329911082218
 23
0.0
 33
0.0
  0
MTEXT
  5
770
330
1E
100
AcDbEntity
  8
0
  6
Continuous
 62
     1
100
AcDbMText
 10
-3.756329911082218
 20
-13.50000000000001
 30
0.0
 40
3.0
 41
0.0
 71
     5
 72
     1
  1
{\fＭＳ 明朝|b0|i0|c128|p17;27.0}
 11
0.0000000000000001
 21
1.0
 31
0.0
 73
     1
 44
1.0
  0
LINE
  5
772
330
1E
100
AcDbEntity
  8
0
  6
Continuous
 62
     1
370
     9
100
AcDbLine
 10
0.0000000000000018
 20
-0.0000000000000036
 30
0.0
 11
0.0
 21
3.604338511130936
 31
0.0
  0
LINE
  5
773
330
1E
100
AcDbEntity
  8
0
  6
Continuous
 62
     1
370
     9
100
AcDbLine
 10
30.5
 20
-4.591890401797915
 30
0.0
 11
30.5
 21
3.604338511130936
 31
0.0
  0
LINE
  5
774
330
1E
100
AcDbEntity
  8
0
  6
Continuous
 62
     1
370
     9
100
AcDbLine
 10
1.200000000000002
 20
3.424338511130937
 30
0.0
 11
11.91666666666667
 21
3.424338511130937
 31
0.0
  0
LINE
  5
775
330
1E
100
AcDbEntity
  8
0
  6
Continuous
 62
     1
370
     9
100
AcDbLine
 10
29.3
 20
3.424338511130937
 30
0.0
 11
18.58333333333332
 21
3.424338511130937
 31
0.0
  0
SOLID
  5
776
330
1E
100
AcDbEntity
  8
0
  6
Continuous
 62
     1
370
     9
100
AcDbTrace
 10
1.200000000000002
 20
3.624338511130936
 30
0.0
 11
1.200000000000002
 21
3.224338511130937
 31
0.0
 12
0.0
 22
3.424338511130937
 32
0.0
 13
0.0
 23
3.424338511130937
 33
0.0
  0
SOLID
  5
777
330
1E
100
AcDbEntity
  8
0
  6
Continuous
 62
     1
370
     9
100
AcDbTrace
 10
29.3
 20
3.624338511130936
 30
0.0
 11
29.3
 21
3.224338511130937
 31
0.0
 12
30.5
 22
3.424338511130937
 32
0.0
 13
30.5
 23
3.424338511130937
 33
0.0
  0
MTEXT
  5
778
330
1E
100
AcDbEntity
  8
0
  6
Continuous
 62
     1
100
AcDbMText
 10
15.25
 20
3.424338511130937
 30
0.0
 40
3.0
 41
0.0
 71
     5
 72
     1
  1
{\f@ＤＦ平成明朝体W7|b0|i0|c128|p1;30.5}
 73
     1
 44
1.0
  0
LINE
  5
77A
330
1E
100
AcDbEntity
  8
0
  6
Continuous
 62
     5
370
     9
100
AcDbLine
 10
0.0
 20
0.0624999999999965
 30
0.0
 11
0.0
 21
8.602535949216065
 31
0.0
  0
LINE
  5
77B
330
1E
100
AcDbEntity
  8
0
  6
Continuous
 62
     5
370
     9
100
AcDbLine
 10
42.99999999999999
 20
0.0624999999999965
 30
0.0
 11
42.99999999999999
 21
8.602535949216065
 31
0.0
  0
LINE
  5
77C
330
1E
100
AcDbEntity
  8
0
  6
Continuous
 62
     5
370
     9
100
AcDbLine
 10
1.200000000000002
 20
8.422535949216065
 30
0.0
 11
18.16666666666667
 21
8.422535949216065
 31
0.0
  0
LINE
  5
77D
330
1E
100
AcDbEntity
  8
0
  6
Continuous
 62
     5
370
     9
100
AcDbLine
 10
41.79999999999999
 20
8.422535949216065
 30
0.0
 11
24.83333333333333
 21
8.422535949216065
 31
0.0
  0
SOLID
  5
77E
330
1E
100
AcDbEntity
  8
0
  6
Continuous
 62
     5
370
     9
100
AcDbTrace
 10
1.200000000000002
 20
8.622535949216068
 30
0.0
 11
1.200000000000002
 21
8.222535949216062
 31
0.0
 12
0.0
 22
8.422535949216065
 32
0.0
 13
0.0
 23
8.422535949216065
 33
0.0
  0
SOLID
  5
77F
330
1E
100
AcDbEntity
  8
0
  6
Continuous
 62
     5
370
     9
100
AcDbTrace
 10
41.79999999999999
 20
8.622535949216068
 30
0.0
 11
41.79999999999999
 21
8.222535949216062
 31
0.0
 12
42.99999999999999
 22
8.422535949216065
 32
0.0
 13
42.99999999999999
 23
8.422535949216065
 33
0.0
  0
MTEXT
  5
780
330
1E
100
AcDbEntity
  8
0
  6
Continuous
 62
     5
100
AcDbMText
 10
21.49999999999999
 20
8.422535949216065
 30
0.0
 40
3.0
 41
0.0
 71
     5
 72
     1
  1
{\fＤＦ平成明朝体W7|b0|i0|c128|p1;43.0}
 73
     1
 44
1.0
  0
LINE
  5
7C7
330
1E
100
AcDbEntity
  8
ﾌﾗﾝｼﾞ
  6
Continuous
 62
     0
100
AcDbLine
 10
84.39260899999998
 20
0.9955050452846521
 30
0.0
 11
84.39260899999998
 21
-8.125700000000023
 31
0.0
  0
LINE
  5
7C8
330
1E
100
AcDbEntity
  8
ﾌﾗﾝｼﾞ
  6
Continuous
 62
     0
100
AcDbLine
 10
98.60739100000001
 20
0.2284785187734073
 30
0.0
 11
98.60739100000001
 21
-8.12570000000003
 31
0.0
  0
LINE
  5
7C9
330
1E
100
AcDbEntity
  8
ﾌﾗﾝｼﾞ
  6
CENTER2
 62
     1
100
AcDbLine
 10
86.392609
 20
3.040331054975528
 30
0.0
 11
86.392609
 21
-18.5
 31
0.0
  0
LINE
  5
7CA
330
1E
100
AcDbEntity
  8
ﾌﾗﾝｼﾞ
  6
Continuous
 62
     0
100
AcDbLine
 10
88.39260899999999
 20
0.9955050452846521
 30
0.0
 11
88.39260899999999
 21
-8.125699999999998
 31
0.0
  0
LINE
  5
7CB
330
1E
100
AcDbEntity
  8
0
  6
CENTER2
 62
     1
370
     9
100
AcDbLine
 10
100.607391
 20
6.276944604965194
 30
0.0
 11
100.607391
 21
-18.50000000000001
 31
0.0
  0
LINE
  5
7CC
330
1E
100
AcDbEntity
  8
ﾌﾗﾝｼﾞ
  6
Continuous
 62
     0
100
AcDbLine
 10
102.607391
 20
0.2284785187734073
 30
0.0
 11
102.607391
 21
-8.125699999999998
 31
0.0
  0
LINE
  5
7CD
330
1E
100
AcDbEntity
  8
ﾌﾗﾝｼﾞ
  6
Continuous
 62
     1
100
AcDbLine
 10
84.39260899999998
 20
-5.125699999999998
 30
0.0
 11
102.607391
 21
-5.125699999999998
 31
0.0
  0
LINE
  5
82A
330
1E
100
AcDbEntity
  8
0
  6
Continuous
 62
     5
370
     9
100
AcDbLine
 10
84.39260899999998
 20
1.058005045284652
 30
0.0
 11
84.39260899999998
 21
9.250871040461838
 31
0.0
  0
LINE
  5
82B
330
1E
100
AcDbEntity
  8
0
  6
Continuous
 62
     5
370
     9
100
AcDbLine
 10
88.39260899999999
 20
1.058005045284652
 30
0.0
 11
88.39260899999999
 21
9.250871040461838
 31
0.0
  0
LINE
  5
82C
330
1E
100
AcDbEntity
  8
0
  6
Continuous
 62
     5
370
     9
100
AcDbLine
 10
85.59260899999999
 20
9.070871040461838
 30
0.0
 11
87.192609
 21
9.070871040461838
 31
0.0
  0
SOLID
  5
82E
330
1E
100
AcDbEntity
  8
0
  6
Continuous
 62
     5
370
     9
100
AcDbTrace
 10
85.59260899999999
 20
9.270871040461841
 30
0.0
 11
85.59260899999999
 21
8.870871040461835
 31
0.0
 12
84.39260899999998
 22
9.070871040461838
 32
0.0
 13
84.39260899999998
 23
9.070871040461838
 33
0.0
  0
SOLID
  5
82F
330
1E
100
AcDbEntity
  8
0
  6
Continuous
 62
     5
370
     9
100
AcDbTrace
 10
87.192609
 20
9.270871040461841
 30
0.0
 11
87.192609
 21
8.870871040461835
 31
0.0
 12
88.39260899999999
 22
9.070871040461838
 32
0.0
 13
88.39260899999999
 23
9.070871040461838
 33
0.0
  0
LINE
  5
852
102
{ACAD_REACTORS
330
18AB
102
}
330
1E
100
AcDbEntity
  8
ﾌﾗﾝｼﾞ
  6
Continuous
 62
     0
100
AcDbLine
 10
-7.119999999999993
 20
-12.99999999999999
 30
0.0
 11
-17.18999999999998
 21
-12.99999999999999
 31
0.0
  0
LINE
  5
853
102
{ACAD_REACTORS
330
18AB
102
}
330
1E
100
AcDbEntity
  8
ﾌﾗﾝｼﾞ
  6
Continuous
 62
     0
100
AcDbLine
 10
-7.119999999999992
 20
-41.0
 30
0.0
 11
-17.18999999999998
 21
-41.0
 31
0.0
  0
LINE
  5
96A
102
{ACAD_REACTORS
330
1849
102
}
330
1E
100
AcDbEntity
  8
ﾌﾗﾝｼﾞ
  6
Continuous
100
AcDbLine
 10
-21.68999999999998
 20
-17.51999999999999
 30
0.0
 11
-25.4600744205826
 21
-17.51999999999999
 31
0.0
  0
LINE
  5
96B
102
{ACAD_REACTORS
330
1849
102
}
330
1E
100
AcDbEntity
  8
ﾌﾗﾝｼﾞ
  6
Continuous
100
AcDbLine
 10
-21.68999999999998
 20
-36.47999999999999
 30
0.0
 11
-25.5003891133319
 21
-36.47999999999999
 31
0.0
  0
DIMENSION
  5
976
330
1E
100
AcDbEntity
  8
0
  6
Continuous
 62
     5
100
AcDbDimension
  2
*D11
 10
-29.78270237918151
 20
-36.47999999999999
 30
0.0
 11
-29.7827023791815
 21
-27.00000000000001
 31
0.0
 70
   160
 71
     5
 42
18.96
  3
Standard
100
AcDbAlignedDimension
 13
-25.34007442058261
 23
-17.51999999999999
 33
0.0
 14
-25.3803891133319
 24
-36.47999999999999
 34
0.0
 50
90.0
100
AcDbRotatedDimension
1001
ACAD
1000
DSTYLE
1002
{
1070
   271
1070
     2
1002
}
  0
MTEXT
  5
99E
330
1E
100
AcDbEntity
  8
0
  6
Continuous
 62
     1
370
     9
100
AcDbMText
 10
-45.24931065457599
 20
-14.34451625850451
 30
0.0
 40
2.304080419993538
 41
16.23979960092701
 71
     1
 72
     5
  1
107-5
 73
     1
 44
1.0
  0
LINE
  5
9AC
102
{ACAD_REACTORS
330
1849
102
}
330
1E
100
AcDbEntity
  8
ﾌﾗﾝｼﾞ
  6
Continuous
100
AcDbLine
 10
-17.18999999999998
 20
-17.0
 30
0.0
 11
-22.18999999999998
 21
-17.0
 31
0.0
  0
LINE
  5
9AD
102
{ACAD_REACTORS
330
1849
102
}
330
1E
100
AcDbEntity
  8
ﾌﾗﾝｼﾞ
  6
Continuous
100
AcDbLine
 10
-17.18999999999998
 20
-37.0
 30
0.0
 11
-22.18999999999998
 21
-37.0
 31
0.0
  0
LINE
  5
9B1
102
{ACAD_REACTORS
330
1849
330
18AB
102
}
330
1E
100
AcDbEntity
  8
ﾌﾗﾝｼﾞ
  6
Continuous
 62
     5
100
AcDbLine
 10
-13.55
 20
-23.0
 30
0.0
 11
-21.68999999999998
 21
-23.00000000000001
 31
0.0
  0
LINE
  5
9B2
102
{ACAD_REACTORS
330
1849
330
18AB
102
}
330
1E
100
AcDbEntity
  8
ﾌﾗﾝｼﾞ
  6
Continuous
 62
     5
100
AcDbLine
 10
-13.55
 20
-31.0
 30
0.0
 11
-21.68999999999998
 21
-31.0
 31
0.0
  0
LINE
  5
9F7
102
{ACAD_REACTORS
330
18AB
102
}
330
1E
100
AcDbEntity
  8
ﾌﾗﾝｼﾞ
 62
     0
100
AcDbLine
 10
-7.119999999999992
 20
-41.0
 30
0.0
 11
-7.119999999999993
 21
-12.99999999999999
 31
0.0
  0
LINE
  5
A0C
102
{ACAD_REACTORS
330
1849
330
18AB
102
}
330
1E
100
AcDbEntity
  8
ﾌﾗﾝｼﾞ
 62
     0
100
AcDbLine
 10
-17.18999999999998
 20
-41.0
 30
0.0
 11
-17.18999999999998
 21
-12.99999999999999
 31
0.0
  0
DIMENSION
  5
A0D
330
1E
100
AcDbEntity
  8
0
  6
Continuous
 62
     5
100
AcDbDimension
  2
*D12
 10
-17.13999999999998
 20
-3.705461710173612
 30
0.0
 11
-12.10499999999999
 21
-3.705461710173612
 31
0.0
 70
    32
 71
     5
 42
10.06999999999999
  3
Standard
100
AcDbAlignedDimension
 13
-7.069999999999993
 23
-11.9375
 33
0.0
 14
-17.13999999999998
 24
-12.99999999999999
 34
0.0
100
AcDbRotatedDimension
1001
ACAD
1000
DSTYLE
1002
{
1070
   271
1070
     2
1002
}
  0
LINE
  5
A2F
102
{ACAD_REACTORS
330
1849
102
}
330
1E
100
AcDbEntity
  8
ﾌﾗﾝｼﾞ
 62
     0
100
AcDbLine
 10
-21.68999999999998
 20
-36.47999999999999
 30
0.0
 11
-21.68999999999998
 21
-17.51999999999999
 31
0.0
  0
LINE
  5
A30
102
{ACAD_REACTORS
330
1849
102
}
330
1E
100
AcDbEntity
  8
ﾌﾗﾝｼﾞ
 62
     0
100
AcDbLine
 10
-22.18999999999998
 20
-37.0
 30
0.0
 11
-22.18999999999998
 21
-36.47999999999999
 31
0.0
  0
LINE
  5
A31
102
{ACAD_REACTORS
330
1849
102
}
330
1E
100
AcDbEntity
  8
ﾌﾗﾝｼﾞ
 62
     0
100
AcDbLine
 10
-22.18999999999998
 20
-17.51999999999999
 30
0.0
 11
-22.18999999999998
 21
-17.0
 31
0.0
  0
LINE
  5
A32
330
1E
100
AcDbEntity
  8
ﾌﾗﾝｼﾞ
  6
CENTER2
 62
     1
100
AcDbLine
 10
-23.59999999999998
 20
-36.47999999999999
 30
0.0
 11
-23.59999999999998
 21
-17.51999999999999
 31
0.0
  0
LINE
  5
A33
330
1E
100
AcDbEntity
  8
ﾌﾗﾝｼﾞ
 62
     0
100
AcDbLine
 10
-25.50999999999998
 20
-36.47999999999999
 30
0.0
 11
-25.50999999999998
 21
-17.51999999999999
 31
0.0
  0
DIMENSION
  5
A5A
330
1E
100
AcDbEntity
  8
0
  6
Continuous
 62
     5
100
AcDbDimension
  2
*D13
 10
-25.45999999999998
 20
-39.2393922671593
 30
0.0
 11
-32.70999999999998
 21
-39.2393922671593
 31
0.0
 70
    32
 71
     5
 42
3.819999999999993
  3
Standard
100
AcDbAlignedDimension
 13
-21.63999999999998
 23
-36.98777505943371
 33
0.0
 14
-25.45999999999998
 24
-36.47999999999999
 34
0.0
100
AcDbRotatedDimension
1001
ACAD
1000
DSTYLE
1002
{
1070
   271
1070
     2
1002
}
  0
LINE
  5
A72
330
1E
100
AcDbEntity
  8
ﾌﾗﾝｼﾞ
  6
Continuous
 62
   252
100
AcDbLine
 10
86.14260899999999
 20
-18.5
 30
0.0
 11
86.642609
 21
-18.5
 31
0.0
  0
LINE
  5
A75
330
1E
100
AcDbEntity
  8
ﾌﾗﾝｼﾞ
  6
Continuous
 62
     0
100
AcDbLine
 10
88.39260899999999
 20
-8.125699999999998
 30
0.0
 11
86.642609
 21
-18.5
 31
0.0
  0
LINE
  5
A76
330
1E
100
AcDbEntity
  8
ﾌﾗﾝｼﾞ
  6
Continuous
 62
     0
100
AcDbLine
 10
84.39260899999998
 20
-8.125699999999998
 30
0.0
 11
86.14260899999999
 21
-18.5
 31
0.0
  0
LINE
  5
A77
330
1E
100
AcDbEntity
  8
ﾌﾗﾝｼﾞ
  6
Continuous
 62
     0
100
AcDbLine
 10
98.60739099999999
 20
-8.125699999999998
 30
0.0
 11
100.3573909999999
 21
-18.5
 31
0.0
  0
LINE
  5
A78
330
1E
100
AcDbEntity
  8
ﾌﾗﾝｼﾞ
  6
Continuous
 62
     0
100
AcDbLine
 10
102.607391
 20
-8.125699999999998
 30
0.0
 11
100.8573909999999
 21
-18.5
 31
0.0
  0
LINE
  5
A79
330
1E
100
AcDbEntity
  8
ﾌﾗﾝｼﾞ
  6
Continuous
 62
   252
100
AcDbLine
 10
100.3573909999999
 20
-18.50000000000001
 30
0.0
 11
100.8573909999999
 21
-18.50000000000001
 31
0.0
  0
DIMENSION
  5
A7A
330
1E
100
AcDbEntity
  8
0
  6
Continuous
 62
     5
100
AcDbDimension
  2
*D14
 10
-17.13999999999998
 20
-8.98682727942219
 30
0.0
 11
-12.84833333333332
 21
-8.98682727942219
 31
0.0
 70
    32
 71
     5
 42
5.0
  3
Standard
100
AcDbAlignedDimension
 13
-22.13999999999998
 23
-17.0
 33
0.0
 14
-17.13999999999998
 24
-12.99999999999999
 34
0.0
100
AcDbRotatedDimension
  0
CIRCLE
  5
A9C
330
1E
100
AcDbEntity
  8
ﾌﾗﾝｼﾞ
 62
     1
100
AcDbCircle
 10
90.0
 20
-90.0
 30
0.0
 40
19.0
  0
ARC
  5
A9D
330
1E
100
AcDbEntity
  8
ﾌﾗﾝｼﾞ
100
AcDbCircle
 10
90.0
 20
-90.0
 30
0.0
 40
26.0
100
AcDbArc
 50
269.9999689891658
 51
90.00003101083409
  0
CIRCLE
  5
A9E
330
1E
100
AcDbEntity
  8
ﾌﾗﾝｼﾞ
 62
     1
100
AcDbCircle
 10
90.0
 20
-90.0
 30
0.0
 40
23.0
  0
CIRCLE
  5
AAF
330
1E
100
AcDbEntity
  8
ﾌﾗﾝｼﾞ
  6
Continuous
100
AcDbCircle
 10
90.0
 20
-90.0
 30
0.0
 40
5.0
  0
LINE
  5
AB1
330
1E
100
AcDbEntity
  8
ﾌﾗﾝｼﾞ
  6
Continuous
 62
     1
100
AcDbLine
 10
76.40553194386839
 20
-67.44193848105877
 30
0.0
 11
94.62031394386841
 21
-67.44193848105877
 31
0.0
  0
LINE
  5
AB2
330
1E
100
AcDbEntity
  8
ﾌﾗﾝｼﾞ
  6
CENTER2
 62
     1
100
AcDbLine
 10
107.0
 20
-90.0
 30
0.0
 11
73.0
 21
-90.0
 31
0.0
  0
HATCH
  5
AB6
330
1E
100
AcDbEntity
  8
ﾌﾗﾝｼﾞ
  6
Continuous
 62
     3
100
AcDbHatch
 10
0.0
 20
0.0
 30
0.0
210
0.0
220
0.0
230
1.0
  2
_USER
 70
     0
 71
     0
 91
        4
 92
        7
 72
     1
 73
     1
 93
        4
 10
85.80555797235868
 20
-68.91311632989716
 42
0.0
 10
85.5129222433897
 20
-67.44193862039264
 42
0.0163086794893117
 10
84.05206960058519
 20
-67.78239157866633
 42
0.0705026382835368
 10
84.20417863471911
 20
-68.17487024050866
 42
0.3249196669260288
 97
        0
 92
        7
 72
     1
 73
     1
 93
        3
 10
85.80555797235868
 20
-68.91311632989716
 42
0.4046929454674621
 10
86.99286067445667
 20
-67.19743187540555
 42
0.0163086890886589
 10
85.5129222433897
 20
-67.44193862039264
 42
0.0
 97
        0
 92
        7
 72
     1
 73
     1
 93
        4
 10
85.5129222433897
 20
-67.44193862039264
 42
-0.0163086890886589
 10
86.99286067445667
 20
-67.19743187540555
 42
0.0869113069828259
 10
86.82166665593753
 20
-66.7090065160178
 42
0.3249198296120274
 10
85.22028645235758
 20
-65.97076059887571
 42
0.0
 97
        0
 92
        7
 72
     1
 73
     1
 93
        3
 10
84.05206960058519
 20
-67.78239157866633
 42
-0.0163086794893116
 10
85.5129222433897
 20
-67.44193862039264
 42
0.0
 10
85.22028645235758
 20
-65.97076059887571
 42
0.4237985941597623
 97
        0
 75
     0
 76
     0
 52
-105.75
 41
0.2
 77
     0
 78
     1
 53
254.2499999999999
 43
90.0
 44
-90.0
 45
0.1924910472907294
 46
-0.054288089973015
 79
     0
 47
0.0413723500077802
 98
        4
 10
85.03908913828217
 20
-68.07581495338837
 10
85.96368968753097
 20
-68.03219756483358
 10
85.95970875860292
 20
-66.75413070038939
 10
84.6420707017385
 20
-67.11269628694885
  0
CIRCLE
  5
AB7
330
1E
100
AcDbEntity
  8
ﾌﾗﾝｼﾞ
 62
     5
100
AcDbCircle
 10
90.0
 20
-71.0
 30
0.0
 40
3.0
  0
CIRCLE
  5
AB8
330
1E
100
AcDbEntity
  8
ﾌﾗﾝｼﾞ
100
AcDbCircle
 10
85.51292247986665
 20
-67.4419384111756
 30
0.0
 40
1.5
  0
LINE
  5
AB9
330
1E
100
AcDbEntity
  8
ﾌﾗﾝｼﾞ
 62
     1
100
AcDbLine
 10
84.73256163194633
 20
-63.51879337937305
 30
0.0
 11
86.09819340965037
 21
-70.38429470235638
 31
0.0
  0
CIRCLE
  5
AC0
330
1E
100
AcDbEntity
  8
ﾌﾗﾝｼﾞ
  6
Continuous
100
AcDbCircle
 10
90.0
 20
-90.0
 30
0.0
 40
3.0
  0
ARC
  5
AE6
330
1E
100
AcDbEntity
  8
ﾌﾗﾝｼﾞ
100
AcDbCircle
 10
90.0
 20
-90.0
 30
0.0
 40
26.0
100
AcDbArc
 50
90.00003101083409
 51
270.0000930330749
  0
LINE
  5
B44
330
1E
100
AcDbEntity
  8
ﾌﾗﾝｼﾞ
  6
CENTER2
 62
     1
100
AcDbLine
 10
90.0
 20
-57.69158209807467
 30
0.0
 11
90.0
 21
-96.26548176173569
 31
0.0
  0
LINE
  5
B45
330
1E
100
AcDbEntity
  8
ﾌﾗﾝｼﾞ
  6
Continuous
 62
     1
100
AcDbLine
 10
90.0
 20
-66.77124837227458
 30
0.0
 11
90.0
 21
-75.22875162772542
 31
0.0
  0
CIRCLE
  5
B46
330
1E
100
AcDbEntity
  8
ﾌﾗﾝｼﾞ
 62
     5
100
AcDbCircle
 10
82.7290147850633
 20
-72.44628888228556
 30
0.0
 40
3.0
  0
LINE
  5
B47
330
1E
100
AcDbEntity
  8
ﾌﾗﾝｼﾞ
  6
Continuous
 62
     1
100
AcDbLine
 10
81.11074159754588
 20
-68.53943180535626
 30
0.0
 11
84.34728797258072
 21
-76.35314595921485
 31
0.0
  0
LINE
  5
B48
330
1E
100
AcDbEntity
  8
ﾌﾗﾝｼﾞ
 62
     1
100
AcDbLine
 10
74.99960246023988
 20
-67.55031660145873
 30
0.0
 11
78.88859531979403
 21
-73.37060809815355
 31
0.0
  0
HATCH
  5
B49
330
1E
100
AcDbEntity
  8
ﾌﾗﾝｼﾞ
  6
Continuous
 62
     3
100
AcDbHatch
 10
0.0
 20
0.0
 30
0.0
210
0.0
220
0.0
230
1.0
  2
_USER
 70
     0
 71
     0
 91
        4
 92
        7
 72
     1
 73
     1
 93
        4
 10
78.05523983959876
 20
-72.12340324473967
 42
0.0
 10
77.22188434363059
 20
-70.87619911543611
 42
0.0163086794893117
 10
76.00251819355946
 20
-71.74978073889615
 42
0.0705026382835368
 10
76.29324369834975
 20
-72.05417413424358
 42
0.3249196669260288
 97
        0
 92
        7
 72
     1
 73
     1
 93
        3
 10
78.05523983959876
 20
-72.12340324473967
 42
0.4046929454674621
 10
78.49560048906212
 20
-70.08395641969189
 42
0.0163086890886589
 10
77.22188434363059
 20
-70.87619911543611
 42
0.0
 97
        0
 92
        7
 72
     1
 73
     1
 93
        4
 10
77.22188434363059
 20
-70.87619911543611
 42
-0.0163086890886589
 10
78.49560048906212
 20
-70.08395641969189
 42
0.0869113069828259
 10
78.15052554627925
 20
-69.69822334160134
 42
0.3249198296120274
 10
76.38852867092154
 20
-69.62899472162122
 42
0.0
 97
        0
 92
        7
 72
     1
 73
     1
 93
        3
 10
76.00251819355946
 20
-71.74978073889615
 42
-0.0163086794893116
 10
77.22188434363059
 20
-70.87619911543611
 42
0.0
 10
76.38852867092154
 20
-69.62899472162122
 42
0.4237985941597623
 97
        0
 75
     0
 76
     0
 52
-83.25000000000002
 41
0.2
 77
     0
 78
     1
 53
276.7499999999999
 43
90.0
 44
-90.0
 45
0.1986136913909852
 46
0.0235074794915674
 79
     0
 47
0.0413723500077802
 98
        4
 10
77.02669360680127
 20
-71.64315256466493
 10
77.86422147803796
 20
-71.2490260403644
 10
77.37144856480336
 20
-70.06976965866972
 10
76.29132684220099
 20
-70.90527931937065
  0
CIRCLE
  5
B4A
330
1E
100
AcDbEntity
  8
ﾌﾗﾝｼﾞ
100
AcDbCircle
 10
77.22188448204287
 20
-70.87619883164896
 30
0.0
 40
1.5
  0
CIRCLE
  5
B4B
330
1E
100
AcDbEntity
  8
ﾌﾗﾝｼﾞ
 62
     5
100
AcDbCircle
 10
76.5649711574556
 20
-76.5649711574556
 30
0.0
 40
3.0
  0
LINE
  5
B4C
330
1E
100
AcDbEntity
  8
ﾌﾗﾝｼﾞ
  6
Continuous
 62
     1
100
AcDbLine
 10
73.57479220553731
 20
-73.57479220553731
 30
0.0
 11
79.55515010937387
 21
-79.55515010937389
 31
0.0
  0
LINE
  5
B4D
330
1E
100
AcDbEntity
  8
ﾌﾗﾝｼﾞ
 62
     1
100
AcDbLine
 10
67.55031783501962
 20
-74.99960061408555
 30
0.0
 11
73.37060786736476
 21
-78.88859566519389
 31
0.0
  0
HATCH
  5
B4E
330
1E
100
AcDbEntity
  8
ﾌﾗﾝｼﾞ
  6
Continuous
 62
     3
100
AcDbHatch
 10
0.0
 20
0.0
 30
0.0
210
0.0
220
0.0
230
1.0
  2
_USER
 70
     0
 71
     0
 91
        4
 92
        7
 72
     1
 73
     1
 93
        4
 10
72.12340316173936
 20
-78.05523996381744
 42
0.0
 10
70.87619871864681
 20
-77.22188493746772
 42
0.0163086794893117
 10
70.08395650407578
 20
-78.49560034297946
 42
0.0705026382835368
 10
70.46903815685135
 20
-78.66556733672334
 42
0.3249196669260288
 97
        0
 92
        7
 72
     1
 73
     1
 93
        3
 10
72.12340316173936
 20
-78.05523996381744
 42
0.4046929454674621
 10
71.7497808415666
 20
-76.00251805969548
 42
0.0163086890886589
 10
70.87619871864681
 20
-77.22188493746772
 42
0.0
 97
        0
 92
        7
 72
     1
 73
     1
 93
        4
 10
70.87619871864681
 20
-77.22188493746772
 42
-0.0163086890886589
 10
71.7497808415666
 20
-76.00251805969548
 42
0.0869113069828259
 10
71.28335950644657
 20
-75.77820162736241
 42
0.3249198296120274
 10
69.62899401104286
 20
-76.38852973437721
 42
0.0
 97
        0
 92
        7
 72
     1
 73
     1
 93
        3
 10
70.08395650407578
 20
-78.49560034297946
 42
-0.0163086794893116
 10
70.87619871864681
 20
-77.22188493746772
 42
0.0
 10
69.62899401104286
 20
-76.38852973437721
 42
0.4237985941597623
 97
        0
 75
     0
 76
     0
 52
-60.75000000000002
 41
0.2
 77
     0
 78
     1
 53
299.2499999999999
 43
90.0
 44
-90.0
 45
0.1744992014145594
 46
0.0977242482993909
 79
     0
 47
0.0413723500077802
 98
        4
 10
70.98936637036953
 20
-78.00515379273488
 10
71.61231553740742
 20
-77.32052032324753
 10
70.70577084890863
 20
-76.41960551842966
 10
70.02760420150671
 20
-77.60486048134426
  0
CIRCLE
  5
B4F
330
1E
100
AcDbEntity
  8
ﾌﾗﾝｼﾞ
100
AcDbCircle
 10
70.87619873792246
 20
-77.22188462231449
 30
0.0
 40
1.5
  0
CIRCLE
  5
B50
330
1E
100
AcDbEntity
  8
ﾌﾗﾝｼﾞ
 62
     5
100
AcDbCircle
 10
72.44628888228556
 20
-82.7290147850633
 30
0.0
 40
3.0
  0
LINE
  5
B51
330
1E
100
AcDbEntity
  8
ﾌﾗﾝｼﾞ
  6
Continuous
 62
     1
100
AcDbLine
 10
68.53943180535623
 20
-81.11074159754586
 30
0.0
 11
76.35314595921482
 21
-84.34728797258072
 31
0.0
  0
LINE
  5
B52
330
1E
100
AcDbEntity
  8
ﾌﾗﾝｼﾞ
 62
     1
100
AcDbLine
 10
63.51879381254201
 20
-84.73255945425878
 30
0.0
 11
70.38429462131412
 21
-86.09819381707731
 31
0.0
  0
HATCH
  5
B53
330
1E
100
AcDbEntity
  8
ﾌﾗﾝｼﾞ
  6
Continuous
 62
     3
100
AcDbHatch
 10
0.0
 20
0.0
 30
0.0
210
0.0
220
0.0
230
1.0
  2
_USER
 70
     0
 71
     0
 91
        4
 92
        7
 72
     1
 73
     1
 93
        4
 10
68.91311630075131
 20
-85.80555811888464
 42
0.0
 10
67.44193848105874
 20
-85.51292294386838
 42
0.0163086794893117
 10
67.19743189746267
 20
-86.99286050720154
 42
0.0705026382835368
 10
67.61824450736236
 20
-87.00252516529902
 42
0.3249196669260288
 97
        0
 92
        7
 72
     1
 73
     1
 93
        3
 10
68.91311630075131
 20
-85.80555811888464
 42
0.4046929454674621
 10
67.78239162229394
 20
-84.05206943762069
 42
0.0163086890886589
 10
67.44193848105874
 20
-85.51292294386838
 42
0.0
 97
        0
 92
        7
 72
     1
 73
     1
 93
        4
 10
67.44193848105874
 20
-85.51292294386838
 42
-0.0163086890886589
 10
67.78239162229394
 20
-84.05206943762069
 42
0.0869113069828259
 10
67.26563231498883
 20
-84.02331979443424
 42
0.3249198296120274
 10
65.97076034935378
 20
-85.22028770678906
 42
0.0
 97
        0
 92
        7
 72
     1
 73
     1
 93
        3
 10
67.19743189746267
 20
-86.99286050720154
 42
-0.0163086794893116
 10
67.44193848105874
 20
-85.51292294386838
 42
0.0
 10
65.97076034935378
 20
-85.22028770678906
 42
0.4237985941597623
 97
        0
 75
     0
 76
     0
 52
-38.25000000000003
 41
0.2
 77
     0
 78
     1
 53
321.7499999999999
 43
90.0
 44
-90.00000000000001
 45
0.1238187898619669
 46
0.1570633861761489
 79
     0
 47
0.0413723500077802
 98
        4
 10
67.84623577222607
 20
-86.1932616223093
 10
68.15976787143188
 20
-85.32235044714672
 10
66.97746461864483
 20
-84.83693333142614
 10
66.80449777091428
 20
-86.19148927281367
  0
CIRCLE
  5
B54
330
1E
100
AcDbEntity
  8
ﾌﾗﾝｼﾞ
100
AcDbCircle
 10
67.44193837826324
 20
-85.51292264532831
 30
0.0
 40
1.5
  0
CIRCLE
  5
B55
330
1E
100
AcDbEntity
  8
ﾌﾗﾝｼﾞ
 62
     5
100
AcDbCircle
 10
71.0
 20
-90.0
 30
0.0
 40
3.0
  0
LINE
  5
B56
330
1E
100
AcDbEntity
  8
ﾌﾗﾝｼﾞ
  6
Continuous
 62
     1
100
AcDbLine
 10
66.77124837227456
 20
-90.0
 30
0.0
 11
75.22875162772542
 21
-90.0
 31
0.0
  0
LINE
  5
B57
330
1E
100
AcDbEntity
  8
ﾌﾗﾝｼﾞ
 62
     1
100
AcDbLine
 10
63.51879337937305
 20
-95.26743836805367
 30
0.0
 11
70.38429470235638
 21
-93.9018065903496
 31
0.0
  0
HATCH
  5
B58
330
1E
100
AcDbEntity
  8
ﾌﾗﾝｼﾞ
  6
Continuous
 62
     3
100
AcDbHatch
 10
0.0
 20
0.0
 30
0.0
210
0.0
220
0.0
230
1.0
  2
_USER
 70
     0
 71
     0
 91
        4
 92
        7
 72
     1
 73
     1
 93
        4
 10
68.91311632989715
 20
-94.19444202764131
 42
0.0
 10
67.44193862039262
 20
-94.48707775661027
 42
0.0163086794893117
 10
67.78239157866631
 20
-95.94793039941482
 42
0.0705026382835368
 10
68.17487024050866
 20
-95.79582136528088
 42
0.3249196669260288
 97
        0
 92
        7
 72
     1
 73
     1
 93
        3
 10
68.91311632989715
 20
-94.19444202764131
 42
0.4046929454674621
 10
67.19743187540553
 20
-93.00713932554334
 42
0.0163086890886589
 10
67.44193862039262
 20
-94.48707775661027
 42
0.0
 97
        0
 92
        7
 72
     1
 73
     1
 93
        4
 10
67.44193862039262
 20
-94.48707775661027
 42
-0.0163086890886589
 10
67.19743187540553
 20
-93.00713932554334
 42
0.0869113069828259
 10
66.70900651601778
 20
-93.1783333440625
 42
0.3249198296120274
 10
65.97076059887569
 20
-94.77971354764243
 42
0.0
 97
        0
 92
        7
 72
     1
 73
     1
 93
        3
 10
67.78239157866631
 20
-95.94793039941482
 42
-0.0163086794893116
 10
67.44193862039262
 20
-94.48707775661027
 42
0.0
 10
65.97076059887569
 20
-94.77971354764243
 42
0.4237985941597623
 97
        0
 75
     0
 76
     0
 52
-15.75000000000003
 41
0.2
 77
     0
 78
     1
 53
344.2499999999999
 43
90.0
 44
-90.0
 45
0.054288089973015
 46
0.1924910472907294
 79
     0
 47
0.0413723500077802
 98
        4
 10
68.07581495338837
 20
-94.9609108617178
 10
68.03219756483355
 20
-94.03631031246904
 10
66.75413070038937
 20
-94.04029124139709
 10
67.11269628694885
 20
-95.35792929826149
  0
CIRCLE
  5
B59
330
1E
100
AcDbEntity
  8
ﾌﾗﾝｼﾞ
100
AcDbCircle
 10
67.44193841117558
 20
-94.48707752013334
 30
0.0
 40
1.5
  0
CIRCLE
  5
B5A
330
1E
100
AcDbEntity
  8
ﾌﾗﾝｼﾞ
 62
     5
100
AcDbCircle
 10
72.44628888228553
 20
-97.27098521493671
 30
0.0
 40
3.0
  0
LINE
  5
B5B
330
1E
100
AcDbEntity
  8
ﾌﾗﾝｼﾞ
  6
Continuous
 62
     1
100
AcDbLine
 10
68.53943180535623
 20
-98.88925840245413
 30
0.0
 11
76.35314595921482
 21
-95.65271202741929
 31
0.0
  0
LINE
  5
B5C
330
1E
100
AcDbEntity
  8
ﾌﾗﾝｼﾞ
 62
     1
100
AcDbLine
 10
67.55031660145871
 20
-105.00039753976
 30
0.0
 11
73.37060809815352
 21
-101.1114046802059
 31
0.0
  0
HATCH
  5
B5D
330
1E
100
AcDbEntity
  8
ﾌﾗﾝｼﾞ
  6
Continuous
 62
     3
100
AcDbHatch
 10
0.0
 20
0.0
 30
0.0
210
0.0
220
0.0
230
1.0
  2
_USER
 70
     0
 71
     0
 91
        4
 92
        7
 72
     1
 73
     1
 93
        4
 10
72.12340324473965
 20
-101.9447601604012
 42
0.0
 10
70.87619911543609
 20
-102.7781156563694
 42
0.0163086794893117
 10
71.74978073889611
 20
-103.9974818064405
 42
0.0705026382835368
 10
72.05417413424356
 20
-103.7067563016502
 42
0.3249196669260288
 97
        0
 92
        7
 72
     1
 73
     1
 93
        3
 10
72.12340324473965
 20
-101.9447601604012
 42
0.4046929454674621
 10
70.08395641969184
 20
-101.5043995109378
 42
0.0163086890886589
 10
70.87619911543609
 20
-102.7781156563694
 42
0.0
 97
        0
 92
        7
 72
     1
 73
     1
 93
        4
 10
70.87619911543609
 20
-102.7781156563694
 42
-0.0163086890886589
 10
70.08395641969184
 20
-101.5043995109378
 42
0.0869113069828259
 10
69.69822334160133
 20
-101.8494744537207
 42
0.3249198296120274
 10
69.62899472162121
 20
-103.6114713290784
 42
0.0
 97
        0
 92
        7
 72
     1
 73
     1
 93
        3
 10
71.74978073889611
 20
-103.9974818064405
 42
-0.0163086794893116
 10
70.87619911543609
 20
-102.7781156563694
 42
0.0
 10
69.62899472162121
 20
-103.6114713290784
 42
0.4237985941597623
 97
        0
 75
     0
 76
     0
 52
6.749999999999961
 41
0.2
 77
     0
 78
     1
 53
6.749999999999936
 43
90.0
 44
-90.00000000000001
 45
-0.0235074794915674
 46
0.1986136913909852
 79
     0
 47
0.0413723500077802
 98
        4
 10
71.64315256466491
 20
-102.9733063931987
 10
71.24902604036439
 20
-102.135778521962
 10
70.06976965866972
 20
-102.6285514351966
 10
70.90527931937064
 20
-103.708673157799
  0
CIRCLE
  5
B5E
330
1E
100
AcDbEntity
  8
ﾌﾗﾝｼﾞ
100
AcDbCircle
 10
70.87619883164894
 20
-102.7781155179571
 30
0.0
 40
1.5
  0
CIRCLE
  5
B5F
330
1E
100
AcDbEntity
  8
ﾌﾗﾝｼﾞ
 62
     5
100
AcDbCircle
 10
76.5649711574556
 20
-103.4350288425444
 30
0.0
 40
3.0
  0
LINE
  5
B60
330
1E
100
AcDbEntity
  8
ﾌﾗﾝｼﾞ
  6
Continuous
 62
     1
100
AcDbLine
 10
73.57479220553727
 20
-106.4252077944627
 30
0.0
 11
79.55515010937387
 21
-100.4448498906261
 31
0.0
  0
LINE
  5
B61
330
1E
100
AcDbEntity
  8
ﾌﾗﾝｼﾞ
 62
     1
100
AcDbLine
 10
74.99960061408552
 20
-112.4496821649803
 30
0.0
 11
78.88859566519386
 21
-106.6293921326352
 31
0.0
  0
HATCH
  5
B62
330
1E
100
AcDbEntity
  8
ﾌﾗﾝｼﾞ
  6
Continuous
 62
     3
100
AcDbHatch
 10
0.0
 20
0.0
 30
0.0
210
0.0
220
0.0
230
1.0
  2
_USER
 70
     0
 71
     0
 91
        4
 92
        7
 72
     1
 73
     1
 93
        4
 10
78.05523996381743
 20
-107.8765968382606
 42
0.0
 10
77.22188493746767
 20
-109.1238012813531
 42
0.0163086794893117
 10
78.49560034297943
 20
-109.9160434959242
 42
0.0705026382835368
 10
78.66556733672331
 20
-109.5309618431486
 42
0.3249196669260288
 97
        0
 92
        7
 72
     1
 73
     1
 93
        3
 10
78.05523996381743
 20
-107.8765968382606
 42
0.4046929454674621
 10
76.00251805969546
 20
-108.2502191584334
 42
0.0163086890886589
 10
77.22188493746767
 20
-109.1238012813531
 42
0.0
 97
        0
 92
        7
 72
     1
 73
     1
 93
        4
 10
77.22188493746767
 20
-109.1238012813531
 42
-0.0163086890886589
 10
76.00251805969546
 20
-108.2502191584334
 42
0.0869113069828259
 10
75.77820162736236
 20
-108.7166404935534
 42
0.3249198296120274
 10
76.38852973437718
 20
-110.3710059889571
 42
0.0
 97
        0
 92
        7
 72
     1
 73
     1
 93
        3
 10
78.49560034297943
 20
-109.9160434959242
 42
-0.0163086794893116
 10
77.22188493746767
 20
-109.1238012813531
 42
0.0
 10
76.38852973437718
 20
-110.3710059889571
 42
0.4237985941597623
 97
        0
 75
     0
 76
     0
 52
29.24999999999995
 41
0.2
 77
     0
 78
     1
 53
29.24999999999992
 43
90.0
 44
-90.00000000000001
 45
-0.0977242482993908
 46
0.1744992014145595
 79
     0
 47
0.0413723500077802
 98
        4
 10
78.00515379273486
 20
-109.0106336296304
 10
77.32052032324751
 20
-108.3876844625925
 10
76.41960551842965
 20
-109.2942291510913
 10
77.60486048134424
 20
-109.9723957984933
  0
CIRCLE
  5
B63
330
1E
100
AcDbEntity
  8
ﾌﾗﾝｼﾞ
100
AcDbCircle
 10
77.22188462231446
 20
-109.1238012620775
 30
0.0
 40
1.5
  0
CIRCLE
  5
B64
330
1E
100
AcDbEntity
  8
ﾌﾗﾝｼﾞ
 62
     5
100
AcDbCircle
 10
82.72901478506327
 20
-107.5537111177144
 30
0.0
 40
3.0
  0
LINE
  5
B65
330
1E
100
AcDbEntity
  8
ﾌﾗﾝｼﾞ
  6
Continuous
 62
     1
100
AcDbLine
 10
81.11074159754585
 20
-111.4605681946437
 30
0.0
 11
84.34728797258072
 21
-103.6468540407851
 31
0.0
  0
LINE
  5
B66
330
1E
100
AcDbEntity
  8
ﾌﾗﾝｼﾞ
 62
     1
100
AcDbLine
 10
84.73255945425876
 20
-116.4812061874579
 30
0.0
 11
86.09819381707728
 21
-109.6157053786859
 31
0.0
  0
HATCH
  5
B67
330
1E
100
AcDbEntity
  8
ﾌﾗﾝｼﾞ
  6
Continuous
 62
     3
100
AcDbHatch
 10
0.0
 20
0.0
 30
0.0
210
0.0
220
0.0
230
1.0
  2
_USER
 70
     0
 71
     0
 91
        4
 92
        7
 72
     1
 73
     1
 93
        4
 10
85.80555811888462
 20
-111.0868836992486
 42
0.0
 10
85.51292294386838
 20
-112.5580615189412
 42
0.0163086794893117
 10
86.99286050720152
 20
-112.8025681025373
 42
0.0705026382835368
 10
87.002525165299
 20
-112.3817554926376
 42
0.3249196669260288
 97
        0
 92
        7
 72
     1
 73
     1
 93
        3
 10
85.80555811888462
 20
-111.0868836992486
 42
0.4046929454674621
 10
84.05206943762067
 20
-112.217608377706
 42
0.0163086890886589
 10
85.51292294386838
 20
-112.5580615189412
 42
0.0
 97
        0
 92
        7
 72
     1
 73
     1
 93
        4
 10
85.51292294386838
 20
-112.5580615189412
 42
-0.0163086890886589
 10
84.05206943762067
 20
-112.217608377706
 42
0.0869113069828259
 10
84.02331979443422
 20
-112.7343676850111
 42
0.3249198296120274
 10
85.22028770678904
 20
-114.0292396506462
 42
0.0
 97
        0
 92
        7
 72
     1
 73
     1
 93
        3
 10
86.99286050720152
 20
-112.8025681025373
 42
-0.0163086794893116
 10
85.51292294386838
 20
-112.5580615189412
 42
0.0
 10
85.22028770678904
 20
-114.0292396506462
 42
0.4237985941597623
 97
        0
 75
     0
 76
     0
 52
51.74999999999995
 41
0.2
 77
     0
 78
     1
 53
51.74999999999992
 43
90.0
 44
-90.00000000000001
 45
-0.1570633861761488
 46
0.1238187898619669
 79
     0
 47
0.0413723500077802
 98
        4
 10
86.19326162230928
 20
-112.1537642277739
 10
85.32235044714671
 20
-111.8402321285681
 10
84.8369333314261
 20
-113.0225353813552
 10
86.19148927281367
 20
-113.1955022290857
  0
CIRCLE
  5
B68
330
1E
100
AcDbEntity
  8
ﾌﾗﾝｼﾞ
100
AcDbCircle
 10
85.51292264532827
 20
-112.5580616217367
 30
0.0
 40
1.5
  0
CIRCLE
  5
B69
330
1E
100
AcDbEntity
  8
ﾌﾗﾝｼﾞ
 62
     5
100
AcDbCircle
 10
90.0
 20
-109.0
 30
0.0
 40
3.0
  0
LINE
  5
B6A
330
1E
100
AcDbEntity
  8
ﾌﾗﾝｼﾞ
  6
Continuous
 62
     1
100
AcDbLine
 10
90.0
 20
-113.2287516277254
 30
0.0
 11
90.0
 21
-104.7712483722746
 31
0.0
  0
LINE
  5
B6B
330
1E
100
AcDbEntity
  8
ﾌﾗﾝｼﾞ
 62
     1
100
AcDbLine
 10
95.26743836805366
 20
-116.4812066206269
 30
0.0
 11
93.90180659034959
 21
-109.6157052976436
 31
0.0
  0
HATCH
  5
B6C
330
1E
100
AcDbEntity
  8
ﾌﾗﾝｼﾞ
  6
Continuous
 62
     3
100
AcDbHatch
 10
0.0
 20
0.0
 30
0.0
210
0.0
220
0.0
230
1.0
  2
_USER
 70
     0
 71
     0
 91
        4
 92
        7
 72
     1
 73
     1
 93
        4
 10
94.19444202764129
 20
-111.0868836701028
 42
0.0
 10
94.48707775661025
 20
-112.5580613796073
 42
0.0163086794893117
 10
95.94793039941482
 20
-112.2176084213337
 42
0.0705026382835368
 10
95.79582136528086
 20
-111.8251297594913
 42
0.3249196669260288
 97
        0
 92
        7
 72
     1
 73
     1
 93
        3
 10
94.19444202764129
 20
-111.0868836701028
 42
0.4046929454674621
 10
93.00713932554334
 20
-112.8025681245944
 42
0.0163086890886589
 10
94.48707775661025
 20
-112.5580613796073
 42
0.0
 97
        0
 92
        7
 72
     1
 73
     1
 93
        4
 10
94.48707775661025
 20
-112.5580613796073
 42
-0.0163086890886589
 10
93.00713932554334
 20
-112.8025681245944
 42
0.0869113069828259
 10
93.17833334406248
 20
-113.2909934839822
 42
0.3249198296120274
 10
94.77971354764241
 20
-114.0292394011243
 42
0.0
 97
        0
 92
        7
 72
     1
 73
     1
 93
        3
 10
95.94793039941482
 20
-112.2176084213337
 42
-0.0163086794893116
 10
94.48707775661025
 20
-112.5580613796073
 42
0.0
 10
94.77971354764241
 20
-114.0292394011243
 42
0.4237985941597623
 97
        0
 75
     0
 76
     0
 52
74.24999999999994
 41
0.2
 77
     0
 78
     1
 53
74.24999999999993
 43
90.0
 44
-90.00000000000001
 45
-0.1924910472907294
 46
0.0542880899730151
 79
     0
 47
0.0413723500077802
 98
        4
 10
94.96091086171778
 20
-111.9241850466116
 10
94.03631031246902
 20
-111.9678024351664
 10
94.04029124139709
 20
-113.2458692996106
 10
95.35792929826147
 20
-112.8873037130511
  0
CIRCLE
  5
B6D
330
1E
100
AcDbEntity
  8
ﾌﾗﾝｼﾞ
100
AcDbCircle
 10
94.48707752013332
 20
-112.5580615888244
 30
0.0
 40
1.5
  0
CIRCLE
  5
B6E
330
1E
100
AcDbEntity
  8
ﾌﾗﾝｼﾞ
 62
     5
100
AcDbCircle
 10
97.27098521493671
 20
-107.5537111177144
 30
0.0
 40
3.0
  0
LINE
  5
B6F
330
1E
100
AcDbEntity
  8
ﾌﾗﾝｼﾞ
  6
Continuous
 62
     1
100
AcDbLine
 10
98.88925840245413
 20
-111.4605681946437
 30
0.0
 11
95.65271202741929
 21
-103.6468540407851
 31
0.0
  0
LINE
  5
B70
330
1E
100
AcDbEntity
  8
ﾌﾗﾝｼﾞ
 62
     1
100
AcDbLine
 10
105.00039753976
 20
-112.4496833985412
 30
0.0
 11
101.1114046802059
 21
-106.6293919018464
 31
0.0
  0
HATCH
  5
B71
330
1E
100
AcDbEntity
  8
ﾌﾗﾝｼﾞ
  6
Continuous
 62
     3
100
AcDbHatch
 10
0.0
 20
0.0
 30
0.0
210
0.0
220
0.0
230
1.0
  2
_USER
 70
     0
 71
     0
 91
        4
 92
        7
 72
     1
 73
     1
 93
        4
 10
101.9447601604012
 20
-107.8765967552603
 42
0.0
 10
102.7781156563694
 20
-109.1238008845639
 42
0.0163086794893117
 10
103.9974818064405
 20
-108.2502192611038
 42
0.0705026382835368
 10
103.7067563016502
 20
-107.9458258657564
 42
0.3249196669260288
 97
        0
 92
        7
 72
     1
 73
     1
 93
        3
 10
101.9447601604012
 20
-107.8765967552603
 42
0.4046929454674621
 10
101.5043995109378
 20
-109.9160435803081
 42
0.0163086890886589
 10
102.7781156563694
 20
-109.1238008845639
 42
0.0
 97
        0
 92
        7
 72
     1
 73
     1
 93
        4
 10
102.7781156563694
 20
-109.1238008845639
 42
-0.0163086890886589
 10
101.5043995109378
 20
-109.9160435803081
 42
0.0869113069828259
 10
101.8494744537207
 20
-110.3017766583986
 42
0.3249198296120274
 10
103.6114713290784
 20
-110.3710052783787
 42
0.0
 97
        0
 92
        7
 72
     1
 73
     1
 93
        3
 10
103.9974818064405
 20
-108.2502192611038
 42
-0.0163086794893116
 10
102.7781156563694
 20
-109.1238008845639
 42
0.0
 10
103.6114713290784
 20
-110.3710052783787
 42
0.4237985941597623
 97
        0
 75
     0
 76
     0
 52
-263.25
 41
0.2
 77
     0
 78
     1
 53
96.7499999999999
 43
90.0
 44
-90.00000000000001
 45
-0.1986136913909853
 46
-0.0235074794915673
 79
     0
 47
0.0413723500077802
 98
        4
 10
102.9733063931987
 20
-108.356847435335
 10
102.135778521962
 20
-108.7509739596356
 10
102.6285514351966
 20
-109.9302303413302
 10
103.708673157799
 20
-109.0947206806293
  0
CIRCLE
  5
B72
330
1E
100
AcDbEntity
  8
ﾌﾗﾝｼﾞ
100
AcDbCircle
 10
102.7781155179571
 20
-109.123801168351
 30
0.0
 40
1.5
  0
CIRCLE
  5
B73
330
1E
100
AcDbEntity
  8
ﾌﾗﾝｼﾞ
 62
     5
100
AcDbCircle
 10
103.4350288425444
 20
-103.4350288425444
 30
0.0
 40
3.0
  0
LINE
  5
B74
330
1E
100
AcDbEntity
  8
ﾌﾗﾝｼﾞ
  6
Continuous
 62
     1
100
AcDbLine
 10
106.4252077944626
 20
-106.4252077944627
 30
0.0
 11
100.4448498906261
 21
-100.4448498906261
 31
0.0
  0
LINE
  5
B75
330
1E
100
AcDbEntity
  8
ﾌﾗﾝｼﾞ
 62
     1
100
AcDbLine
 10
112.4496821649803
 20
-105.0003993859144
 30
0.0
 11
106.6293921326352
 21
-101.1114043348061
 31
0.0
  0
HATCH
  5
B76
330
1E
100
AcDbEntity
  8
ﾌﾗﾝｼﾞ
  6
Continuous
 62
     3
100
AcDbHatch
 10
0.0
 20
0.0
 30
0.0
210
0.0
220
0.0
230
1.0
  2
_USER
 70
     0
 71
     0
 91
        4
 92
        7
 72
     1
 73
     1
 93
        4
 10
107.8765968382606
 20
-101.9447600361825
 42
0.0
 10
109.1238012813531
 20
-102.7781150625323
 42
0.0163086794893117
 10
109.9160434959242
 20
-101.5043996570205
 42
0.0705026382835368
 10
109.5309618431486
 20
-101.3344326632766
 42
0.3249196669260288
 97
        0
 92
        7
 72
     1
 73
     1
 93
        3
 10
107.8765968382606
 20
-101.9447600361825
 42
0.4046929454674621
 10
108.2502191584333
 20
-103.9974819403045
 42
0.0163086890886589
 10
109.1238012813531
 20
-102.7781150625323
 42
0.0
 97
        0
 92
        7
 72
     1
 73
     1
 93
        4
 10
109.1238012813531
 20
-102.7781150625323
 42
-0.0163086890886589
 10
108.2502191584333
 20
-103.9974819403045
 42
0.0869113069828259
 10
108.7166404935534
 20
-104.2217983726376
 42
0.3249198296120274
 10
110.3710059889571
 20
-103.6114702656228
 42
0.0
 97
        0
 92
        7
 72
     1
 73
     1
 93
        3
 10
109.9160434959242
 20
-101.5043996570205
 42
-0.0163086794893116
 10
109.1238012813531
 20
-102.7781150625323
 42
0.0
 10
110.3710059889571
 20
-103.6114702656228
 42
0.4237985941597623
 97
        0
 75
     0
 76
     0
 52
-240.75
 41
0.2
 77
     0
 78
     1
 53
119.2499999999999
 43
90.0
 44
-90.00000000000001
 45
-0.1744992014145595
 46
-0.0977242482993908
 79
     0
 47
0.0413723500077802
 98
        4
 10
109.0106336296304
 20
-101.9948462072651
 10
108.3876844625925
 20
-102.6794796767525
 10
109.2942291510913
 20
-103.5803944815703
 10
109.9723957984932
 20
-102.3951395186557
  0
CIRCLE
  5
B77
330
1E
100
AcDbEntity
  8
ﾌﾗﾝｼﾞ
100
AcDbCircle
 10
109.1238012620775
 20
-102.7781153776855
 30
0.0
 40
1.5
  0
CIRCLE
  5
B78
330
1E
100
AcDbEntity
  8
ﾌﾗﾝｼﾞ
 62
     5
100
AcDbCircle
 10
107.5537111177144
 20
-97.27098521493672
 30
0.0
 40
3.0
  0
LINE
  5
B79
330
1E
100
AcDbEntity
  8
ﾌﾗﾝｼﾞ
  6
Continuous
 62
     1
100
AcDbLine
 10
111.4605681946437
 20
-98.88925840245416
 30
0.0
 11
103.6468540407851
 21
-95.6527120274193
 31
0.0
  0
LINE
  5
B7A
330
1E
100
AcDbEntity
  8
ﾌﾗﾝｼﾞ
 62
     1
100
AcDbLine
 10
116.4812061874579
 20
-95.26744054574125
 30
0.0
 11
109.6157053786859
 21
-93.90180618292271
 31
0.0
  0
HATCH
  5
B7B
330
1E
100
AcDbEntity
  8
ﾌﾗﾝｼﾞ
  6
Continuous
 62
     3
100
AcDbHatch
 10
0.0
 20
0.0
 30
0.0
210
0.0
220
0.0
230
1.0
  2
_USER
 70
     0
 71
     0
 91
        4
 92
        7
 72
     1
 73
     1
 93
        4
 10
111.0868836992486
 20
-94.19444188111539
 42
0.0
 10
112.5580615189412
 20
-94.48707705613164
 42
0.0163086794893117
 10
112.8025681025373
 20
-93.00713949279849
 42
0.0705026382835368
 10
112.3817554926376
 20
-92.99747483470101
 42
0.3249196669260288
 97
        0
 92
        7
 72
     1
 73
     1
 93
        3
 10
111.0868836992486
 20
-94.19444188111539
 42
0.4046929454674621
 10
112.217608377706
 20
-95.94793056237934
 42
0.0163086890886589
 10
112.5580615189412
 20
-94.48707705613164
 42
0.0
 97
        0
 92
        7
 72
     1
 73
     1
 93
        4
 10
112.5580615189412
 20
-94.48707705613164
 42
-0.0163086890886589
 10
112.217608377706
 20
-95.94793056237934
 42
0.0869113069828259
 10
112.7343676850111
 20
-95.97668020556579
 42
0.3249198296120274
 10
114.0292396506462
 20
-94.77971229321097
 42
0.0
 97
        0
 92
        7
 72
     1
 73
     1
 93
        3
 10
112.8025681025373
 20
-93.00713949279849
 42
-0.0163086794893116
 10
112.5580615189412
 20
-94.48707705613164
 42
0.0
 10
114.0292396506462
 20
-94.77971229321097
 42
0.4237985941597623
 97
        0
 75
     0
 76
     0
 52
-218.25
 41
0.2
 77
     0
 78
     1
 53
141.7499999999999
 43
90.0
 44
-90.00000000000001
 45
-0.123818789861967
 46
-0.1570633861761488
 79
     0
 47
0.0413723500077802
 98
        4
 10
112.1537642277739
 20
-93.80673837769073
 10
111.8402321285681
 20
-94.6776495528533
 10
113.0225353813551
 20
-95.16306666857389
 10
113.1955022290857
 20
-93.80851072718636
  0
CIRCLE
  5
B7C
330
1E
100
AcDbEntity
  8
ﾌﾗﾝｼﾞ
100
AcDbCircle
 10
112.5580616217367
 20
-94.48707735467175
 30
0.0
 40
1.5
  0
CIRCLE
  5
B7D
330
1E
100
AcDbEntity
  8
ﾌﾗﾝｼﾞ
 62
     5
100
AcDbCircle
 10
109.0
 20
-90.00000000000003
 30
0.0
 40
3.0
  0
LINE
  5
B7E
330
1E
100
AcDbEntity
  8
ﾌﾗﾝｼﾞ
  6
Continuous
 62
     1
100
AcDbLine
 10
113.2287516277254
 20
-90.00000000000003
 30
0.0
 11
104.7712483722746
 21
-90.00000000000001
 31
0.0
  0
LINE
  5
B7F
330
1E
100
AcDbEntity
  8
ﾌﾗﾝｼﾞ
 62
     1
100
AcDbLine
 10
116.4812066206269
 20
-84.73256163194635
 30
0.0
 11
109.6157052976436
 21
-86.0981934096504
 31
0.0
  0
HATCH
  5
B80
330
1E
100
AcDbEntity
  8
ﾌﾗﾝｼﾞ
  6
Continuous
 62
     3
100
AcDbHatch
 10
0.0
 20
0.0
 30
0.0
210
0.0
220
0.0
230
1.0
  2
_USER
 70
     0
 71
     0
 91
        4
 92
        7
 72
     1
 73
     1
 93
        4
 10
111.0868836701028
 20
-85.80555797235872
 42
0.0
 10
112.5580613796073
 20
-85.51292224338974
 42
0.0163086794893117
 10
112.2176084213337
 20
-84.05206960058519
 42
0.0705026382835368
 10
111.8251297594913
 20
-84.20417863471914
 42
0.3249196669260288
 97
        0
 92
        7
 72
     1
 73
     1
 93
        3
 10
111.0868836701028
 20
-85.80555797235872
 42
0.4046929454674621
 10
112.8025681245944
 20
-86.99286067445669
 42
0.0163086890886589
 10
112.5580613796073
 20
-85.51292224338974
 42
0.0
 97
        0
 92
        7
 72
     1
 73
     1
 93
        4
 10
112.5580613796073
 20
-85.51292224338974
 42
-0.0163086890886589
 10
112.8025681245944
 20
-86.99286067445669
 42
0.0869113069828259
 10
113.2909934839822
 20
-86.82166665593753
 42
0.3249198296120274
 10
114.0292394011243
 20
-85.2202864523576
 42
0.0
 97
        0
 92
        7
 72
     1
 73
     1
 93
        3
 10
112.2176084213337
 20
-84.05206960058519
 42
-0.0163086794893116
 10
112.5580613796073
 20
-85.51292224338974
 42
0.0
 10
114.0292394011243
 20
-85.2202864523576
 42
0.4237985941597623
 97
        0
 75
     0
 76
     0
 52
-195.75
 41
0.2
 77
     0
 78
     1
 53
164.2499999999999
 43
90.0
 44
-90.0
 45
-0.0542880899730152
 46
-0.1924910472907293
 79
     0
 47
0.0413723500077802
 98
        4
 10
111.9241850466116
 20
-85.03908913828222
 10
111.9678024351664
 20
-85.96368968753099
 10
113.2458692996106
 20
-85.95970875860293
 10
112.8873037130511
 20
-84.64207070173854
  0
CIRCLE
  5
B81
330
1E
100
AcDbEntity
  8
ﾌﾗﾝｼﾞ
100
AcDbCircle
 10
112.5580615888244
 20
-85.51292247986669
 30
0.0
 40
1.5
  0
CIRCLE
  5
B82
330
1E
100
AcDbEntity
  8
ﾌﾗﾝｼﾞ
 62
     5
100
AcDbCircle
 10
107.5537111177144
 20
-82.72901478506332
 30
0.0
 40
3.0
  0
LINE
  5
B83
330
1E
100
AcDbEntity
  8
ﾌﾗﾝｼﾞ
  6
Continuous
 62
     1
100
AcDbLine
 10
111.4605681946437
 20
-81.11074159754592
 30
0.0
 11
103.6468540407851
 21
-84.34728797258074
 31
0.0
  0
LINE
  5
B84
330
1E
100
AcDbEntity
  8
ﾌﾗﾝｼﾞ
 62
     1
100
AcDbLine
 10
112.4496833985413
 20
-74.99960246023994
 30
0.0
 11
106.6293919018464
 21
-78.88859531979405
 31
0.0
  0
HATCH
  5
B85
330
1E
100
AcDbEntity
  8
ﾌﾗﾝｼﾞ
  6
Continuous
 62
     3
100
AcDbHatch
 10
0.0
 20
0.0
 30
0.0
210
0.0
220
0.0
230
1.0
  2
_USER
 70
     0
 71
     0
 91
        4
 92
        7
 72
     1
 73
     1
 93
        4
 10
107.8765967552603
 20
-78.05523983959877
 42
0.0
 10
109.1238008845639
 20
-77.22188434363062
 42
0.0163086794893117
 10
108.2502192611038
 20
-76.00251819355951
 42
0.0705026382835368
 10
107.9458258657564
 20
-76.29324369834979
 42
0.3249196669260288
 97
        0
 92
        7
 72
     1
 73
     1
 93
        3
 10
107.8765967552603
 20
-78.05523983959877
 42
0.4046929454674621
 10
109.9160435803081
 20
-78.49560048906217
 42
0.0163086890886589
 10
109.1238008845639
 20
-77.22188434363062
 42
0.0
 97
        0
 92
        7
 72
     1
 73
     1
 93
        4
 10
109.1238008845639
 20
-77.22188434363062
 42
-0.0163086890886589
 10
109.9160435803081
 20
-78.49560048906217
 42
0.0869113069828259
 10
110.3017766583986
 20
-78.15052554627929
 42
0.3249198296120274
 10
110.3710052783787
 20
-76.38852867092158
 42
0.0
 97
        0
 92
        7
 72
     1
 73
     1
 93
        3
 10
108.2502192611038
 20
-76.00251819355951
 42
-0.0163086794893116
 10
109.1238008845639
 20
-77.22188434363062
 42
0.0
 10
110.3710052783787
 20
-76.38852867092158
 42
0.4237985941597623
 97
        0
 75
     0
 76
     0
 52
-173.2500000000001
 41
0.2
 77
     0
 78
     1
 53
186.7499999999998
 43
90.0
 44
-90.00000000000001
 45
0.0235074794915671
 46
-0.1986136913909853
 79
     0
 47
0.0413723500077802
 98
        4
 10
108.3568474353351
 20
-77.02669360680132
 10
108.7509739596356
 20
-77.86422147803799
 10
109.9302303413302
 20
-77.37144856480338
 10
109.0947206806293
 20
-76.29132684220102
  0
CIRCLE
  5
B86
330
1E
100
AcDbEntity
  8
ﾌﾗﾝｼﾞ
100
AcDbCircle
 10
109.123801168351
 20
-77.22188448204292
 30
0.0
 40
1.5
  0
CIRCLE
  5
B87
330
1E
100
AcDbEntity
  8
ﾌﾗﾝｼﾞ
 62
     5
100
AcDbCircle
 10
103.4350288425444
 20
-76.56497115745562
 30
0.0
 40
3.0
  0
LINE
  5
B88
330
1E
100
AcDbEntity
  8
ﾌﾗﾝｼﾞ
  6
Continuous
 62
     1
100
AcDbLine
 10
106.4252077944627
 20
-73.57479220553734
 30
0.0
 11
100.4448498906261
 21
-79.55515010937391
 31
0.0
  0
LINE
  5
B89
330
1E
100
AcDbEntity
  8
ﾌﾗﾝｼﾞ
 62
     1
100
AcDbLine
 10
105.0003993859145
 20
-67.55031783501967
 30
0.0
 11
101.1114043348061
 21
-73.37060786736476
 31
0.0
  0
HATCH
  5
B8A
330
1E
100
AcDbEntity
  8
ﾌﾗﾝｼﾞ
  6
Continuous
 62
     3
100
AcDbHatch
 10
0.0
 20
0.0
 30
0.0
210
0.0
220
0.0
230
1.0
  2
_USER
 70
     0
 71
     0
 91
        4
 92
        7
 72
     1
 73
     1
 93
        4
 10
101.9447600361826
 20
-72.1234031617394
 42
0.0
 10
102.7781150625323
 20
-70.87619871864685
 42
0.0163086794893117
 10
101.5043996570206
 20
-70.08395650407582
 42
0.0705026382835368
 10
101.3344326632767
 20
-70.46903815685138
 42
0.3249196669260288
 97
        0
 92
        7
 72
     1
 73
     1
 93
        3
 10
101.9447600361826
 20
-72.1234031617394
 42
0.4046929454674621
 10
103.9974819403045
 20
-71.74978084156665
 42
0.0163086890886589
 10
102.7781150625323
 20
-70.87619871864685
 42
0.0
 97
        0
 92
        7
 72
     1
 73
     1
 93
        4
 10
102.7781150625323
 20
-70.87619871864685
 42
-0.0163086890886589
 10
103.9974819403045
 20
-71.74978084156665
 42
0.0869113069828259
 10
104.2217983726376
 20
-71.2833595064466
 42
0.3249198296120274
 10
103.6114702656228
 20
-69.62899401104289
 42
0.0
 97
        0
 92
        7
 72
     1
 73
     1
 93
        3
 10
101.5043996570206
 20
-70.08395650407582
 42
-0.0163086794893116
 10
102.7781150625323
 20
-70.87619871864685
 42
0.0
 10
103.6114702656228
 20
-69.62899401104289
 42
0.4237985941597623
 97
        0
 75
     0
 76
     0
 52
-150.7500000000001
 41
0.2
 77
     0
 78
     1
 53
209.2499999999998
 43
90.0
 44
-90.0
 45
0.0977242482993905
 46
-0.1744992014145597
 79
     0
 47
0.0413723500077802
 98
        4
 10
101.9948462072651
 20
-70.98936637036958
 10
102.6794796767525
 20
-71.61231553740744
 10
103.5803944815703
 20
-70.70577084890868
 10
102.3951395186557
 20
-70.02760420150673
  0
CIRCLE
  5
B8B
330
1E
100
AcDbEntity
  8
ﾌﾗﾝｼﾞ
100
AcDbCircle
 10
102.7781153776855
 20
-70.87619873792249
 30
0.0
 40
1.5
  0
CIRCLE
  5
B8C
330
1E
100
AcDbEntity
  8
ﾌﾗﾝｼﾞ
 62
     5
100
AcDbCircle
 10
97.27098521493672
 20
-72.44628888228557
 30
0.0
 40
3.0
  0
LINE
  5
B8D
330
1E
100
AcDbEntity
  8
ﾌﾗﾝｼﾞ
  6
Continuous
 62
     1
100
AcDbLine
 10
98.88925840245418
 20
-68.53943180535627
 30
0.0
 11
95.6527120274193
 21
-76.35314595921487
 31
0.0
  0
LINE
  5
B8E
330
1E
100
AcDbEntity
  8
ﾌﾗﾝｼﾞ
 62
     1
100
AcDbLine
 10
95.26744054574129
 20
-63.51879381254206
 30
0.0
 11
93.90180618292271
 21
-70.38429462131414
 31
0.0
  0
HATCH
  5
B8F
330
1E
100
AcDbEntity
  8
ﾌﾗﾝｼﾞ
  6
Continuous
 62
     3
100
AcDbHatch
 10
0.0
 20
0.0
 30
0.0
210
0.0
220
0.0
230
1.0
  2
_USER
 70
     0
 71
     0
 91
        4
 92
        7
 72
     1
 73
     1
 93
        4
 10
94.19444188111544
 20
-68.91311630075134
 42
0.0
 10
94.48707705613168
 20
-67.44193848105878
 42
0.0163086794893117
 10
93.00713949279851
 20
-67.19743189746271
 42
0.0705026382835368
 10
92.99747483470104
 20
-67.61824450736236
 42
0.3249196669260288
 97
        0
 92
        7
 72
     1
 73
     1
 93
        3
 10
94.19444188111544
 20
-68.91311630075134
 42
0.4046929454674621
 10
95.94793056237937
 20
-67.78239162229397
 42
0.0163086890886589
 10
94.48707705613168
 20
-67.44193848105878
 42
0.0
 97
        0
 92
        7
 72
     1
 73
     1
 93
        4
 10
94.48707705613168
 20
-67.44193848105878
 42
-0.0163086890886589
 10
95.94793056237937
 20
-67.78239162229397
 42
0.0869113069828259
 10
95.9766802055658
 20
-67.26563231498886
 42
0.3249198296120274
 10
94.77971229321099
 20
-65.97076034935378
 42
0.0
 97
        0
 92
        7
 72
     1
 73
     1
 93
        3
 10
93.00713949279851
 20
-67.19743189746271
 42
-0.0163086794893116
 10
94.48707705613168
 20
-67.44193848105878
 42
0.0
 10
94.77971229321099
 20
-65.97076034935378
 42
0.4237985941597623
 97
        0
 75
     0
 76
     0
 52
-128.2500000000001
 41
0.2
 77
     0
 78
     1
 53
231.7499999999998
 43
90.0
 44
-90.0
 45
0.1570633861761486
 46
-0.1238187898619673
 79
     0
 47
0.0413723500077802
 98
        4
 10
93.80673837769075
 20
-67.8462357722261
 10
94.67764955285332
 20
-68.15976787143189
 10
95.16306666857392
 20
-66.97746461864483
 10
93.80851072718639
 20
-66.80449777091428
  0
CIRCLE
  5
B90
330
1E
100
AcDbEntity
  8
ﾌﾗﾝｼﾞ
100
AcDbCircle
 10
94.48707735467179
 20
-67.44193837826324
 30
0.0
 40
1.5
  0
LINE
  5
B91
330
1E
100
AcDbEntity
  8
ﾌﾗﾝｼﾞ
  6
Continuous
 62
   252
100
AcDbLine
 10
88.76292247986663
 20
-80.81623848105877
 30
0.0
 11
89.26292247986664
 21
-80.81623848105877
 31
0.0
  0
LINE
  5
B92
330
1E
100
AcDbEntity
  8
ﾌﾗﾝｼﾞ
  6
Continuous
 62
     4
100
AcDbLine
 10
58.51684054464995
 20
-80.81623848105875
 30
0.0
 11
121.48315945535
 21
-80.81623848105875
 31
0.0
  0
LINE
  5
B93
330
1E
100
AcDbEntity
  8
ﾌﾗﾝｼﾞ
  6
CENTER2
 62
     1
100
AcDbLine
 10
89.01292247986663
 20
-59.27590742608323
 30
0.0
 11
89.01292247986663
 21
-80.81623848105877
 31
0.0
  0
LINE
  5
B94
330
1E
100
AcDbEntity
  8
ﾌﾗﾝｼﾞ
  6
Continuous
 62
     0
100
AcDbLine
 10
87.01292247986662
 20
-70.44193848105877
 30
0.0
 11
88.76292247986663
 21
-80.81623848105877
 31
0.0
  0
LINE
  5
B95
330
1E
100
AcDbEntity
  8
ﾌﾗﾝｼﾞ
  6
Continuous
 62
     0
100
AcDbLine
 10
91.01292247986663
 20
-70.44193848105877
 30
0.0
 11
89.26292247986664
 21
-80.81623848105877
 31
0.0
  0
LINE
  5
B96
330
1E
100
AcDbEntity
  8
ﾌﾗﾝｼﾞ
  6
Continuous
 62
     0
100
AcDbLine
 10
91.01292247986663
 20
-61.32073343577411
 30
0.0
 11
91.01292247986663
 21
-70.44193848105877
 31
0.0
  0
LINE
  5
B97
330
1E
100
AcDbEntity
  8
ﾌﾗﾝｼﾞ
  6
Continuous
 62
     0
100
AcDbLine
 10
87.01292247986662
 20
-61.32073343577411
 30
0.0
 11
87.01292247986662
 21
-70.4419384810588
 31
0.0
  0
LINE
  5
B98
330
1E
100
AcDbEntity
  8
ﾌﾗﾝｼﾞ
  6
Continuous
 62
     1
100
AcDbLine
 10
87.01292247986662
 20
-67.44193848105877
 30
0.0
 11
105.2277044798666
 21
-67.44193848105877
 31
0.0
  0
LINE
  5
B99
330
1E
100
AcDbEntity
  8
ﾌﾗﾝｼﾞ
  6
Continuous
 62
     0
100
AcDbLine
 10
99.98707735467178
 20
-61.3207333123484
 30
0.0
 11
99.98707735467178
 21
-70.44193835763305
 31
0.0
  0
LINE
  5
B9A
330
1E
100
AcDbEntity
  8
ﾌﾗﾝｼﾞ
  6
Continuous
 62
     0
100
AcDbLine
 10
95.98707735467177
 20
-61.3207333123484
 30
0.0
 11
95.98707735467177
 21
-70.44193835763308
 31
0.0
  0
LINE
  5
B9B
330
1E
100
AcDbEntity
  8
ﾌﾗﾝｼﾞ
  6
Continuous
 62
     0
100
AcDbLine
 10
95.98707735467177
 20
-70.44193835763305
 30
0.0
 11
97.73707735467178
 21
-80.81623835763306
 31
0.0
  0
LINE
  5
B9C
330
1E
100
AcDbEntity
  8
ﾌﾗﾝｼﾞ
  6
Continuous
 62
     0
100
AcDbLine
 10
99.98707735467178
 20
-70.44193835763305
 30
0.0
 11
98.23707735467179
 21
-80.81623835763306
 31
0.0
  0
LINE
  5
B9D
330
1E
100
AcDbEntity
  8
ﾌﾗﾝｼﾞ
  6
CENTER2
 62
     1
100
AcDbLine
 10
97.98707735467178
 20
-59.27590730265753
 30
0.0
 11
97.98707735467178
 21
-80.81623835763306
 31
0.0
  0
DIMENSION
  5
B9E
330
1E
100
AcDbEntity
  8
0
  6
Continuous
100
AcDbDimension
  2
*D15
 10
97.98707735467178
 20
-57.87158209807467
 30
0.0
 11
104.9870773546717
 21
-57.87158209807467
 31
0.0
 70
    32
 71
     5
 42
7.987077354671782
  3
Standard
100
AcDbAlignedDimension
 13
90.0
 23
-64.0
 33
0.0
 14
97.98707735467178
 24
-65.25719103799066
 34
0.0
100
AcDbRotatedDimension
1001
ACAD
1000
DSTYLE
1002
{
1070
   271
1070
     3
1002
}
  0
DIMENSION
  5
BAC
330
1E
100
AcDbEntity
  8
0
  6
Continuous
100
AcDbDimension
  2
*D16
 10
89.99998592772987
 20
-60.61144612779668
 30
0.0
 11
98.29165259439655
 21
-60.61144612779668
 31
0.0
 70
    32
 71
     5
 42
0.9870634478632496
  3
Standard
100
AcDbAlignedDimension
 13
89.01292247986663
 23
-67.44193848105877
 33
0.0
 14
89.99998592772987
 24
-64.00000000000381
 34
0.0
100
AcDbRotatedDimension
1001
ACAD
1000
DSTYLE
1002
{
1070
   271
1070
     3
1002
}
  0
DIMENSION
  5
BBA
330
1E
100
AcDbEntity
  8
0
  6
Continuous
 62
     5
100
AcDbDimension
  2
*D17
 10
98.343459
 20
-1.321470000000008
 30
0.0
 11
98.40635361104798
 21
-15.62589223427524
 31
0.0
 70
    34
 71
     5
 42
0.314159077090532
  3
Standard
100
AcDb2LineAngularDimension
 13
90.0
 23
-44.0
 33
0.0
 14
90.0
 24
6.533818747688599
 34
0.0
 15
96.18034000000001
 25
-7.978870000000011
 35
0.0
 16
91.44475267359622
 26
-13.25410107619293
 36
0.0
  0
DIMENSION
  5
BCA
330
1E
100
AcDbEntity
  8
0
  6
Continuous
 62
     5
100
AcDbDimension
  2
*D18
 10
93.90180618292271
 20
-70.38429462131414
 30
0.0
 11
100.1880685971134
 21
-81.37565447197642
 31
0.0
 70
    34
 71
     5
 42
0.1963497291178151
  3
Standard
100
AcDb2LineAngularDimension
 13
90.0
 23
-53.29530677446451
 33
0.0
 14
90.0
 24
-96.26548176173569
 34
0.0
 15
95.26744054574129
 25
-63.51879381254206
 35
0.0
 16
90.79546449257103
 26
-77.86354842561642
 36
0.0
1001
ACAD
1000
DSTYLE
1002
{
1070
   179
1070
     2
1002
}
  0
DIMENSION
  5
BE9
330
1E
100
AcDbEntity
  8
0
  6
Continuous
 62
     0
370
    15
100
AcDbDimension
  2
*D19
 10
55.05413731583541
 20
-18.49999999999999
 30
0.0
 11
55.05413731583542
 21
-9.249999999999996
 31
0.0
 70
   160
 71
     5
 42
18.49999999999998
  3
Standard
100
AcDbAlignedDimension
 13
30.5
 23
-0.0000000000000036
 33
0.0
 14
55.05413731583541
 24
-18.49999999999999
 34
0.0
 50
90.0
100
AcDbRotatedDimension
  0
LWPOLYLINE
  5
C2C
330
1E
100
AcDbEntity
  8
0
  6
Continuous
 62
     5
100
AcDbPolyline
 90
        4
 70
     1
 43
0.0
 10
-17.34925075084629
 20
6.105766283096667
 10
-6.5531485232666
 20
6.105766283096667
 10
-6.5531485232666
 20
10.35581793705574
 10
-17.34925075084629
 20
10.35581793705574
  0
LWPOLYLINE
  5
C2D
330
1E
100
AcDbEntity
  8
0
  6
Continuous
 62
     5
100
AcDbPolyline
 90
        4
 70
     1
 43
0.0
 10
-29.89017713264917
 20
-13.45536981608205
 10
-25.25548686366437
 20
-13.45536981608205
 10
-25.25548686366437
 20
-4.301412212462654
 10
-29.89017713264917
 20
-4.301412212462654
  0
DIMENSION
  5
C63
330
1E
100
AcDbEntity
  8
0
  6
Continuous
 62
     0
100
AcDbDimension
  2
*D20
 10
100.607391
 20
6.857628355487179
 30
0.0
 11
108.0240576666666
 21
6.857628355487179
 31
0.0
 70
    32
 71
     5
 42
10.607391
  3
Standard
100
AcDbAlignedDimension
 13
90.0
 23
-1.0
 33
0.0
 14
100.607391
 24
-3.262197739194157
 34
0.0
100
AcDbRotatedDimension
1001
ACAD
1000
DSTYLE
1002
{
1070
   271
1070
     3
1002
}
  0
DIMENSION
  5
C7B
330
1E
100
AcDbEntity
  8
0
  6
Continuous
 62
     0
100
AcDbDimension
  2
*D21
 10
90.0
 20
3.099584061391851
 30
0.0
 11
98.29166666666667
 21
3.099584061391851
 31
0.0
 70
    32
 71
     5
 42
3.607391000000006
  3
Standard
100
AcDbAlignedDimension
 13
86.392609
 23
-1.251471300807903
 33
0.0
 14
90.0
 24
-1.0
 34
0.0
100
AcDbRotatedDimension
1001
ACAD
1000
DSTYLE
1002
{
1070
   271
1070
     3
1002
}
  0
DIMENSION
  5
D07
330
1E
100
AcDbEntity
  8
0
  6
Continuous
 62
     5
100
AcDbDimension
  2
*D22
 10
-48.74983666428753
 20
-90.0
 30
0.0
 11
-48.7498366642875
 21
-45.00000000000001
 31
0.0
 70
    32
 71
     5
 42
90.0
  3
Standard
100
AcDbAlignedDimension
 13
-62.5
 23
-0.0000000000000036
 33
0.0
 14
-61.5
 24
-90.0
 34
0.0
 50
90.0
100
AcDbRotatedDimension
  0
LINE
  5
D08
330
1E
100
AcDbEntity
  8
BASE
  6
Continuous
 62
     0
100
AcDbLine
 10
-126.5
 20
-1.000000000000003
 30
0.0
 11
-126.5
 21
-90.0
 31
0.0
  0
LINE
  5
D09
330
1E
100
AcDbEntity
  8
BASE
  6
Continuous
 62
     0
100
AcDbLine
 10
-62.5
 20
-1.000000000000003
 30
0.0
 11
-62.5
 21
-90.0
 31
0.0
  0
LINE
  5
D0A
330
1E
100
AcDbEntity
  8
BASE
  6
Continuous
 62
     0
100
AcDbLine
 10
-127.5
 20
-1.000000000000003
 30
0.0
 11
-127.5
 21
-90.0
 31
0.0
  0
LINE
  5
D0B
330
1E
100
AcDbEntity
  8
BASE
  6
Continuous
 62
     0
100
AcDbLine
 10
-61.5
 20
-1.000000000000003
 30
0.0
 11
-61.5
 21
-90.0
 31
0.0
  0
LINE
  5
D0C
330
1E
100
AcDbEntity
  8
BASE
  6
CENTER2
 62
     1
100
AcDbLine
 10
-94.50000000000001
 20
8.614187895562249
 30
0.0
 11
-94.50000000000001
 21
-92.61418789556225
 31
0.0
  0
LINE
  5
D0D
330
1E
100
AcDbEntity
  8
BASE
  6
Continuous
 62
     0
100
AcDbLine
 10
-61.5
 20
-90.0
 30
0.0
 11
-127.5
 21
-90.0
 31
0.0
  0
DIMENSION
  5
D0E
330
1E
100
AcDbEntity
  8
0
  6
Continuous
 62
     5
100
AcDbDimension
  2
*D23
 10
-61.5
 20
9.012258783301771
 30
0.0
 11
-94.50000000000001
 21
9.012258783301771
 31
0.0
 70
    32
 71
     5
 42
66.0
  3
Standard
100
AcDbAlignedDimension
 13
-127.5
 23
-1.000000000000003
 33
0.0
 14
-61.5
 24
-1.000000000000003
 34
0.0
100
AcDbRotatedDimension
  0
LINE
  5
D10
330
1E
100
AcDbEntity
  8
BASE
  6
CENTER2
 62
     1
100
AcDbLine
 10
-72.20836834405611
 20
-27.0
 30
0.0
 11
-116.7916316559438
 21
-27.0
 31
0.0
  0
LINE
  5
D11
330
1E
100
AcDbEntity
  8
BASE
  6
Continuous
 62
     0
100
AcDbLine
 10
-62.5
 20
-0.0000000000000036
 30
0.0
 11
-126.5
 21
-0.0000000000000036
 31
0.0
  0
CIRCLE
  5
D12
330
1E
100
AcDbEntity
  8
ﾌﾗﾝｼﾞ
  6
Continuous
 62
     8
100
AcDbCircle
 10
-94.50000000000001
 20
-27.0
 30
0.0
 40
5.0
  0
CIRCLE
  5
D13
330
1E
100
AcDbEntity
  8
ﾌﾗﾝｼﾞ
  6
Continuous
 62
     8
100
AcDbCircle
 10
-94.50000000000001
 20
-27.0
 30
0.0
 40
15.0
  0
LINE
  5
D15
330
1E
100
AcDbEntity
  8
BASE
  6
Continuous
 62
     0
100
AcDbLine
 10
-126.5
 20
-0.0000000000000036
 30
0.0
 11
-127.5
 21
-1.000000000000003
 31
0.0
  0
LINE
  5
D17
330
1E
100
AcDbEntity
  8
BASE
  6
Continuous
 62
     0
100
AcDbLine
 10
-62.5
 20
-0.0000000000000036
 30
0.0
 11
-61.5
 21
-1.000000000000003
 31
0.0
  0
CIRCLE
  5
ECC
330
1E
100
AcDbEntity
  8
BASE
  6
Continuous
 62
     6
100
AcDbCircle
 10
-94.50000000000001
 20
-0.0000000000000036
 30
0.0
 40
3.0
  0
LEADER
  5
EF6
330
1E
100
AcDbEntity
  8
0
  6
Continuous
 62
     6
100
AcDbLeader
  3
Standard
 76
     3
 10
-94.50000000000001
 20
-0.0000000000000036
 30
0.0
 10
-90.12589059779475
 20
23.77645500693523
 30
0.0
 10
-36.44706242084737
 20
23.77645500693523
 30
0.0
1001
ACAD
1000
DSTYLE
1002
{
1070
   147
1040
0.5
1070
    77
1070
     0
1002
}
  0
MTEXT
  5
EFD
330
1E
100
AcDbEntity
  8
0
  6
Continuous
 62
     6
100
AcDbMText
 10
-89.81417038941549
 20
30.335026073643
 30
0.0
 40
3.0
 41
70.44966204976742
 71
     1
 72
     5
  1
{\fMS UI Gothic|b0|i0|c128|p17;\C7;ロ－タ加工nc-data　Ｙ座標０基準点}
 73
     1
 44
1.0
  0
SOLID
  5
F06
330
1E
100
AcDbEntity
  8
0
  6
Continuous
 62
     6
100
AcDbTrace
 10
0.7088594049128348
 20
0.9886952736139782
 30
0.0
 11
0.0
 21
0.0
 31
0.0
 12
0.3498847537454452
 22
1.165152633390358
 32
0.0
 13
0.3498847537454452
 23
1.165152633390358
 33
0.0
1001
ACAD
1000
DSTYLE
1002
{
1070
   147
1040
0.5
1070
    77
1070
     0
1002
}
  0
LWPOLYLINE
  5
F07
330
1E
100
AcDbEntity
  8
0
  6
Continuous
 62
     6
100
AcDbPolyline
 90
        3
 70
     0
 43
0.0
 10
0.52937207932914
 20
1.076923953502168
 10
11.08205859538964
 20
22.54469931737622
 10
11.08205859538964
 20
22.54469931737622
1001
ACAD
1000
DSTYLE
1002
{
1070
   147
1040
0.5
1070
    77
1070
     0
1002
}
  0
LINE
  5
F09
330
1E
100
AcDbEntity
  8
0
  6
Continuous
 62
     5
370
     9
100
AcDbLine
 10
0.0000000000000018
 20
-0.0000000000000036
 30
0.0
 11
-27.59305752618143
 21
0.0000000000000067
 31
0.0
  0
LINE
  5
F0A
330
1E
100
AcDbEntity
  8
0
  6
Continuous
 62
     5
370
     9
100
AcDbLine
 10
-25.40257442058261
 20
-17.51999999999999
 30
0.0
 11
-27.59305752618143
 21
-17.51999999999999
 31
0.0
  0
LINE
  5
F0B
330
1E
100
AcDbEntity
  8
0
  6
Continuous
 62
     5
370
     9
100
AcDbLine
 10
-27.41305752618143
 20
-1.199999999999992
 30
0.0
 11
-27.41305752618143
 21
-4.593333333333329
 31
0.0
  0
LINE
  5
F0C
330
1E
100
AcDbEntity
  8
0
  6
Continuous
 62
     5
370
     9
100
AcDbLine
 10
-27.41305752618143
 20
-16.31999999999999
 30
0.0
 11
-27.41305752618143
 21
-12.92666666666666
 31
0.0
  0
SOLID
  5
F0D
330
1E
100
AcDbEntity
  8
0
  6
Continuous
 62
     5
100
AcDbTrace
 10
-27.61305752618143
 20
-1.199999999999992
 30
0.0
 11
-27.21305752618143
 21
-1.199999999999992
 31
0.0
 12
-27.41305752618143
 22
0.0000000000000067
 32
0.0
 13
-27.41305752618143
 23
0.0000000000000067
 33
0.0
  0
SOLID
  5
F0E
330
1E
100
AcDbEntity
  8
0
  6
Continuous
 62
     5
100
AcDbTrace
 10
-27.61305752618143
 20
-16.31999999999999
 30
0.0
 11
-27.21305752618143
 21
-16.31999999999999
 31
0.0
 12
-27.41305752618143
 22
-17.51999999999999
 32
0.0
 13
-27.41305752618143
 23
-17.51999999999999
 33
0.0
  0
MTEXT
  5
F0F
330
1E
100
AcDbEntity
  8
0
  6
Continuous
 62
     5
370
     9
100
AcDbMText
 10
-27.41305752618143
 20
-8.759999999999999
 30
0.0
 40
3.0
 41
0.0
 71
     5
 72
     1
  1
{\fMS UI Gothic|b0|i0|c128|p17;Ｂ}
 11
0.0000000000000001
 21
1.0
 31
0.0
 73
     1
 44
1.0
  0
LINE
  5
F10
330
1E
100
AcDbEntity
  8
0
  6
Continuous
 62
     5
100
AcDbLine
 10
-23.52503721029128
 20
-17.45749999999999
 30
0.0
 11
-23.52503721029128
 21
8.611043746176722
 31
0.0
  0
LINE
  5
F11
330
1E
100
AcDbEntity
  8
0
  6
Continuous
 62
     5
100
AcDbLine
 10
0.000000000000001
 20
-0.0000000000000036
 30
0.0
 11
0.0000000000000008
 21
8.611043746176722
 31
0.0
  0
LINE
  5
F12
330
1E
100
AcDbEntity
  8
0
  6
Continuous
 62
     5
100
AcDbLine
 10
-22.32503721029128
 20
8.431043746176722
 30
0.0
 11
-16.26251860514564
 21
8.431043746176722
 31
0.0
  0
LINE
  5
F13
330
1E
100
AcDbEntity
  8
0
  6
Continuous
 62
     5
100
AcDbLine
 10
-1.199999999999998
 20
8.431043746176722
 30
0.0
 11
-7.262518605145642
 21
8.431043746176722
 31
0.0
  0
SOLID
  5
F14
330
1E
100
AcDbEntity
  8
0
  6
Continuous
 62
     5
100
AcDbTrace
 10
-22.32503721029128
 20
8.631043746176722
 30
0.0
 11
-22.32503721029128
 21
8.231043746176723
 31
0.0
 12
-23.52503721029128
 22
8.431043746176722
 32
0.0
 13
-23.52503721029128
 23
8.431043746176722
 33
0.0
  0
SOLID
  5
F15
330
1E
100
AcDbEntity
  8
0
  6
Continuous
 62
     5
100
AcDbTrace
 10
-1.199999999999998
 20
8.631043746176722
 30
0.0
 11
-1.199999999999998
 21
8.231043746176723
 31
0.0
 12
0.0000000000000008
 22
8.431043746176722
 32
0.0
 13
0.0000000000000008
 23
8.431043746176722
 33
0.0
  0
MTEXT
  5
F16
330
1E
100
AcDbEntity
  8
0
  6
Continuous
 62
     5
100
AcDbMText
 10
-11.76251860514564
 20
8.431043746176722
 30
0.0
 40
3.0
 41
0.0
 71
     5
 72
     1
  1
{\fMS UI Gothic|b0|i0|c128|p17;Ｃ}
 73
     1
 44
1.0
  0
LINE
  5
F17
330
1E
100
AcDbEntity
  8
BASE
  6
Continuous
 62
     5
100
AcDbLine
 10
-76.6651902816028
 20
-0.0000000000000036
 30
0.0
 11
-74.66519028160281
 21
1.999999999999996
 31
0.0
  0
LINE
  5
F19
330
1E
100
AcDbEntity
  8
BASE
  6
Continuous
 62
     5
100
AcDbLine
 10
-76.6651902816028
 20
-0.0000000000000036
 30
0.0
 11
-78.6651902816028
 21
1.999999999999996
 31
0.0
  0
LINE
  5
F1C
330
1E
100
AcDbEntity
  8
BASE
  6
Continuous
 62
     5
100
AcDbLine
 10
-74.66519028160281
 20
1.999999999999996
 30
0.0
 11
-75.6651902816028
 21
1.999999999999996
 31
0.0
  0
LINE
  5
F1D
330
1E
100
AcDbEntity
  8
BASE
  6
Continuous
 62
     5
100
AcDbLine
 10
-75.66519028160282
 20
1.999999999999996
 30
0.0
 11
-75.66519028160282
 21
3.999999999999996
 31
0.0
  0
LINE
  5
F1E
330
1E
100
AcDbEntity
  8
BASE
  6
Continuous
 62
     5
100
AcDbLine
 10
-77.66519028160281
 20
1.999999999999996
 30
0.0
 11
-77.66519028160281
 21
3.999999999999996
 31
0.0
  0
LINE
  5
F23
330
1E
100
AcDbEntity
  8
BASE
  6
Continuous
 62
     5
100
AcDbLine
 10
-77.6651902816028
 20
1.999999999999996
 30
0.0
 11
-78.6651902816028
 21
1.999999999999996
 31
0.0
  0
LINE
  5
F25
330
1E
100
AcDbEntity
  8
BASE
  6
Continuous
 62
     5
100
AcDbLine
 10
-75.6651902816028
 20
3.999999999999996
 30
0.0
 11
-77.6651902816028
 21
3.999999999999996
 31
0.0
  0
LINE
  5
F27
102
{ACAD_REACTORS
330
F37
102
}
330
1E
100
AcDbEntity
  8
BASE
  6
Continuous
 62
     5
100
AcDbLine
 10
-76.6651902816028
 20
0.1414213562373164
 30
0.0
 11
-78.42376892536549
 21
1.899999999999996
 31
0.0
  0
LINE
  5
F28
102
{ACAD_REACTORS
330
F37
102
}
330
1E
100
AcDbEntity
  8
BASE
  6
Continuous
 62
     5
100
AcDbLine
 10
-76.6651902816028
 20
0.1414213562373164
 30
0.0
 11
-74.90661163784013
 21
1.899999999999996
 31
0.0
  0
LINE
  5
F29
102
{ACAD_REACTORS
330
F37
102
}
330
1E
100
AcDbEntity
  8
BASE
  6
Continuous
 62
     5
100
AcDbLine
 10
-77.56519028160281
 20
1.899999999999996
 30
0.0
 11
-78.42376892536546
 21
1.899999999999996
 31
0.0
  0
LINE
  5
F2A
102
{ACAD_REACTORS
330
F37
102
}
330
1E
100
AcDbEntity
  8
BASE
  6
Continuous
 62
     5
100
AcDbLine
 10
-77.56519028160282
 20
1.899999999999996
 30
0.0
 11
-77.56519028160282
 21
3.899999999999996
 31
0.0
  0
LINE
  5
F2B
102
{ACAD_REACTORS
330
F37
102
}
330
1E
100
AcDbEntity
  8
BASE
  6
Continuous
 62
     5
100
AcDbLine
 10
-75.76519028160281
 20
3.899999999999995
 30
0.0
 11
-77.56519028160282
 21
3.899999999999996
 31
0.0
  0
LINE
  5
F2C
102
{ACAD_REACTORS
330
F37
102
}
330
1E
100
AcDbEntity
  8
BASE
  6
Continuous
 62
     5
100
AcDbLine
 10
-75.76519028160281
 20
1.899999999999996
 30
0.0
 11
-75.76519028160281
 21
3.899999999999996
 31
0.0
  0
LINE
  5
F2D
102
{ACAD_REACTORS
330
F37
102
}
330
1E
100
AcDbEntity
  8
BASE
  6
Continuous
 62
     5
100
AcDbLine
 10
-74.90661163784011
 20
1.899999999999996
 30
0.0
 11
-75.7651902816028
 21
1.899999999999996
 31
0.0
  0
HATCH
  5
F37
330
1E
100
AcDbEntity
  8
BASE
  6
Continuous
 62
     1
100
AcDbHatch
 10
0.0
 20
0.0
 30
0.0
210
0.0
220
0.0
230
1.0
  2
_USER
 70
     0
 71
     1
 91
        1
 92
        7
 72
     0
 73
     1
 93
        7
 10
-75.7651902816028
 20
3.899999999999995
 10
-77.56519028160282
 20
3.899999999999996
 10
-77.56519028160282
 20
1.899999999999996
 10
-78.42376892536549
 20
1.899999999999996
 10
-76.6651902816028
 20
0.1414213562373172
 10
-74.90661163784013
 20
1.899999999999996
 10
-75.76519028160281
 20
1.899999999999996
 97
        7
330
F2B
330
F2A
330
F29
330
F27
330
F28
330
F2D
330
F2C
 75
     0
 76
     0
 52
45.0
 41
0.1
 77
     0
 78
     1
 53
45.0
 43
0.0
 44
0.0
 45
-0.0707106781186548
 46
0.0707106781186548
 79
     0
 47
0.0523692845270429
 98
        1
 10
-76.59790178031347
 20
2.083377158621715
  0
MTEXT
  5
F45
330
1E
100
AcDbEntity
  8
0
  6
Continuous
 62
     6
100
AcDbMText
 10
-77.3583797536171
 20
21.41055440551588
 30
0.0
 40
3.0
 41
64.13209999999999
 71
     1
 72
     5
  1
{\fMS UI Gothic|b0|i0|c128|p17;\C7;ロ－タ加工nc-data　Z座標０基準点（\C1;注意\C7;＞Ｚ補正５０Ｈレベル使用）}
 73
     1
 44
1.0
  0
LINE
  5
F47
330
1E
100
AcDbEntity
  8
0
  6
Continuous
 62
     0
100
AcDbLine
 10
-76.6651902816028
 20
3.999999999999996
 30
0.0
 11
-76.6651902816028
 21
11.392877034018
 31
0.0
  0
HATCH
  5
F5C
330
1E
100
AcDbEntity
  8
BASE
  6
Continuous
 62
     1
100
AcDbHatch
 10
0.0
 20
0.0
 30
0.0
210
0.0
220
0.0
230
1.0
  2
_USER
 70
     0
 71
     1
 91
        1
 92
        7
 72
     0
 73
     1
 93
        7
 10
-3.899999999999998
 20
-1.073264897962232
 10
-3.899999999999998
 20
-2.873264897962243
 10
-1.899999999999998
 20
-2.873264897962243
 10
-1.899999999999998
 20
-3.731843541724912
 10
-0.1414213562373163
 20
-1.973264897962224
 10
-1.899999999999998
 20
-0.2146862541995487
 10
-1.899999999999998
 20
-1.073264897962232
 97
        7
330
F63
330
F65
330
F66
330
F61
330
F5D
330
F5E
330
F69
 75
     0
 76
     0
 52
135.0
 41
0.1
 77
     0
 78
     1
 53
135.0
 43
0.0
 44
74.69192538364058
 45
-0.0707106781186548
 46
-0.0707106781186548
 79
     0
 47
0.0523692845270429
 98
        1
 10
-2.083377158621715
 20
-1.905976396672883
  0
LINE
  5
F5D
102
{ACAD_REACTORS
330
F5C
102
}
330
1E
100
AcDbEntity
  8
BASE
  6
Continuous
 62
     5
100
AcDbLine
 10
-0.1414213562373163
 20
-1.973264897962224
 30
0.0
 11
-1.899999999999998
 21
-0.2146862541995489
 31
0.0
  0
LINE
  5
F5E
102
{ACAD_REACTORS
330
F5C
102
}
330
1E
100
AcDbEntity
  8
BASE
  6
Continuous
 62
     5
100
AcDbLine
 10
-1.899999999999998
 20
-0.2146862541995347
 30
0.0
 11
-1.899999999999998
 21
-1.073264897962218
 31
0.0
  0
LINE
  5
F5F
330
1E
100
AcDbEntity
  8
BASE
  6
Continuous
 62
     5
100
AcDbLine
 10
-2.0
 20
0.026735102037776
 30
0.0
 11
-2.0
 21
-0.973264897962224
 31
0.0
  0
LINE
  5
F60
330
1E
100
AcDbEntity
  8
BASE
  6
Continuous
 62
     5
100
AcDbLine
 10
0.0
 20
-1.973264897962224
 30
0.0
 11
-2.0
 21
0.026735102037776
 31
0.0
  0
LINE
  5
F61
102
{ACAD_REACTORS
330
F5C
102
}
330
1E
100
AcDbEntity
  8
BASE
  6
Continuous
 62
     5
100
AcDbLine
 10
-0.1414213562373163
 20
-1.973264897962224
 30
0.0
 11
-1.899999999999998
 21
-3.731843541724913
 31
0.0
  0
LINE
  5
F62
330
1E
100
AcDbEntity
  8
BASE
  6
Continuous
 62
     5
100
AcDbLine
 10
0.0
 20
-1.973264897962224
 30
0.0
 11
-2.0
 21
-3.973264897962224
 31
0.0
  0
LINE
  5
F63
102
{ACAD_REACTORS
330
F5C
102
}
330
1E
100
AcDbEntity
  8
BASE
  6
Continuous
 62
     5
100
AcDbLine
 10
-3.899999999999998
 20
-1.073264897962232
 30
0.0
 11
-3.899999999999998
 21
-2.873264897962243
 31
0.0
  0
LINE
  5
F64
330
1E
100
AcDbEntity
  8
BASE
  6
Continuous
 62
     5
100
AcDbLine
 10
-4.0
 20
-0.973264897962224
 30
0.0
 11
-4.0
 21
-2.973264897962224
 31
0.0
  0
LINE
  5
F65
102
{ACAD_REACTORS
330
F5C
102
}
330
1E
100
AcDbEntity
  8
BASE
  6
Continuous
 62
     5
100
AcDbLine
 10
-1.899999999999998
 20
-2.873264897962243
 30
0.0
 11
-3.899999999999998
 21
-2.873264897962243
 31
0.0
  0
LINE
  5
F66
102
{ACAD_REACTORS
330
F5C
102
}
330
1E
100
AcDbEntity
  8
BASE
  6
Continuous
 62
     5
100
AcDbLine
 10
-1.899999999999998
 20
-2.873264897962229
 30
0.0
 11
-1.899999999999998
 21
-3.731843541724884
 31
0.0
  0
LINE
  5
F67
330
1E
100
AcDbEntity
  8
BASE
  6
Continuous
 62
     5
100
AcDbLine
 10
-2.0
 20
-2.973264897962238
 30
0.0
 11
-4.0
 21
-2.973264897962238
 31
0.0
  0
LINE
  5
F68
330
1E
100
AcDbEntity
  8
BASE
  6
Continuous
 62
     5
100
AcDbLine
 10
-2.0
 20
-2.973264897962224
 30
0.0
 11
-2.0
 21
-3.973264897962224
 31
0.0
  0
LINE
  5
F69
102
{ACAD_REACTORS
330
F5C
102
}
330
1E
100
AcDbEntity
  8
BASE
  6
Continuous
 62
     5
100
AcDbLine
 10
-1.899999999999998
 20
-1.073264897962232
 30
0.0
 11
-3.899999999999998
 21
-1.073264897962232
 31
0.0
  0
LINE
  5
F6A
330
1E
100
AcDbEntity
  8
BASE
  6
Continuous
 62
     5
100
AcDbLine
 10
-2.0
 20
-0.9732648979622382
 30
0.0
 11
-4.0
 21
-0.9732648979622382
 31
0.0
  0
HATCH
  5
F7E
330
1E
100
AcDbEntity
  8
BASE
  6
Continuous
 62
     1
100
AcDbHatch
 10
0.0
 20
0.0
 30
0.0
210
0.0
220
0.0
230
1.0
  2
_USER
 70
     0
 71
     1
 91
        1
 92
        7
 72
     0
 73
     1
 93
        7
 10
-98.39999999999999
 20
0.8999999999999879
 10
-98.39999999999999
 20
-0.9000000000000234
 10
-96.4
 20
-0.9000000000000234
 10
-96.4
 20
-1.758578643762681
 10
-94.64142135623729
 20
-0.0000000000000092
 10
-96.4
 20
1.758578643762654
 10
-96.4
 20
0.8999999999999879
 97
        7
330
F85
330
F87
330
F88
330
F83
330
F7F
330
F80
330
F8B
 75
     0
 76
     0
 52
135.0
 41
0.1
 77
     0
 78
     1
 53
135.0
 43
-94.50000000000001
 44
76.6651902816028
 45
-0.0707106781186548
 46
-0.0707106781186548
 79
     0
 47
0.0523692845270429
 98
        1
 10
-96.58337715862172
 20
0.0672885012893367
  0
LINE
  5
F7F
102
{ACAD_REACTORS
330
F7E
102
}
330
1E
100
AcDbEntity
  8
BASE
  6
Continuous
 62
     5
100
AcDbLine
 10
-94.64142135623731
 20
-0.0000000000000036
 30
0.0
 11
-96.4
 21
1.758578643762671
 31
0.0
  0
LINE
  5
F80
102
{ACAD_REACTORS
330
F7E
102
}
330
1E
100
AcDbEntity
  8
BASE
  6
Continuous
 62
     5
100
AcDbLine
 10
-96.4
 20
1.758578643762685
 30
0.0
 11
-96.4
 21
0.9000000000000021
 31
0.0
  0
LINE
  5
F81
330
1E
100
AcDbEntity
  8
BASE
  6
Continuous
 62
     5
100
AcDbLine
 10
-96.5
 20
1.999999999999996
 30
0.0
 11
-96.5
 21
0.9999999999999964
 31
0.0
  0
LINE
  5
F82
330
1E
100
AcDbEntity
  8
BASE
  6
Continuous
 62
     5
100
AcDbLine
 10
-94.50000000000001
 20
-0.0000000000000036
 30
0.0
 11
-96.5
 21
1.999999999999996
 31
0.0
  0
LINE
  5
F83
102
{ACAD_REACTORS
330
F7E
102
}
330
1E
100
AcDbEntity
  8
BASE
  6
Continuous
 62
     5
100
AcDbLine
 10
-94.64142135623731
 20
-0.0000000000000036
 30
0.0
 11
-96.4
 21
-1.758578643762692
 31
0.0
  0
LINE
  5
F84
330
1E
100
AcDbEntity
  8
BASE
  6
Continuous
 62
     5
100
AcDbLine
 10
-94.50000000000001
 20
-0.0000000000000036
 30
0.0
 11
-96.5
 21
-2.000000000000003
 31
0.0
  0
LINE
  5
F85
102
{ACAD_REACTORS
330
F7E
102
}
330
1E
100
AcDbEntity
  8
BASE
  6
Continuous
 62
     5
100
AcDbLine
 10
-98.40000000000001
 20
0.8999999999999879
 30
0.0
 11
-98.40000000000001
 21
-0.9000000000000234
 31
0.0
  0
LINE
  5
F86
330
1E
100
AcDbEntity
  8
BASE
  6
Continuous
 62
     5
100
AcDbLine
 10
-98.50000000000001
 20
0.9999999999999964
 30
0.0
 11
-98.50000000000001
 21
-1.000000000000003
 31
0.0
  0
LINE
  5
F87
102
{ACAD_REACTORS
330
F7E
102
}
330
1E
100
AcDbEntity
  8
BASE
  6
Continuous
 62
     5
100
AcDbLine
 10
-96.4
 20
-0.9000000000000234
 30
0.0
 11
-98.40000000000001
 21
-0.9000000000000234
 31
0.0
  0
LINE
  5
F88
102
{ACAD_REACTORS
330
F7E
102
}
330
1E
100
AcDbEntity
  8
BASE
  6
Continuous
 62
     5
100
AcDbLine
 10
-96.4
 20
-0.9000000000000092
 30
0.0
 11
-96.4
 21
-1.758578643762664
 31
0.0
  0
LINE
  5
F89
330
1E
100
AcDbEntity
  8
BASE
  6
Continuous
 62
     5
100
AcDbLine
 10
-96.5
 20
-1.000000000000017
 30
0.0
 11
-98.50000000000001
 21
-1.000000000000017
 31
0.0
  0
LINE
  5
F8A
330
1E
100
AcDbEntity
  8
BASE
  6
Continuous
 62
     5
100
AcDbLine
 10
-96.5
 20
-1.000000000000003
 30
0.0
 11
-96.5
 21
-2.000000000000003
 31
0.0
  0
LINE
  5
F8B
102
{ACAD_REACTORS
330
F7E
102
}
330
1E
100
AcDbEntity
  8
BASE
  6
Continuous
 62
     5
100
AcDbLine
 10
-96.4
 20
0.8999999999999879
 30
0.0
 11
-98.40000000000001
 21
0.8999999999999879
 31
0.0
  0
LINE
  5
F8C
330
1E
100
AcDbEntity
  8
BASE
  6
Continuous
 62
     5
100
AcDbLine
 10
-96.5
 20
0.9999999999999822
 30
0.0
 11
-98.50000000000001
 21
0.9999999999999822
 31
0.0
  0
LEADER
  5
F8D
330
1E
100
AcDbEntity
  8
0
  6
Continuous
 62
     6
100
AcDbLeader
  3
Standard
 76
     2
 10
-23.54999999999998
 20
-36.47999999999999
 30
0.0
 10
-36.02045079194875
 20
-50.89363978477229
 30
0.0
1001
ACAD
1000
DSTYLE
1002
{
1070
   147
1040
0.5
1070
    77
1070
     0
1002
}
  0
MTEXT
  5
F8E
330
1E
100
AcDbEntity
  8
0
  6
Continuous
 62
     1
100
AcDbMText
 10
-45.33044331260874
 20
-51.37808873248815
 30
0.0
 40
2.5
 41
22.4845
 71
     1
 72
     5
  1
{\fMS UI Gothic|b0|i0|c128|p17;\C7;刻印ロ－タ\H1.2x;19}
 73
     1
 44
1.0
  0
LINE
  5
1013
330
1E
100
AcDbEntity
  8
ﾌﾗﾝｼﾞ
  6
Continuous
 62
     3
100
AcDbLine
 10
-17.18999999999998
 20
-27.03949493661164
 30
0.0
 11
-17.15050506338833
 21
-26.99999999999999
 31
0.0
  0
LEADER
  5
1066
330
1E
100
AcDbEntity
  8
0
  6
Continuous
 62
     6
100
AcDbLeader
  3
Standard
 76
     2
 10
-12.10499999999999
 20
-41.0
 30
0.0
 10
-24.5671696748559
 20
-65.87685191735864
 30
0.0
1001
ACAD
1000
DSTYLE
1002
{
1070
   147
1040
0.5
1070
    77
1070
     0
1002
}
  0
MTEXT
  5
1067
330
1E
100
AcDbEntity
  8
0
  6
Continuous
 62
     6
100
AcDbMText
 10
-42.31624859929979
 20
-62.49380740802632
 30
0.0
 40
3.0
 41
45.45707695950676
 71
     1
 72
     5
  1
{\fMS UI Gothic|b0|i0|c128|p17;\C7;刻印ロ－タ19Φ用治具}
 73
     1
 44
1.0
  0
LINE
  5
1080
330
1E
100
AcDbEntity
  8
0
  6
Continuous
 62
     5
370
     9
100
AcDbLine
 10
115.200217007228
 20
-68.4953741273675
 30
0.0
 11
108.5502308901561
 21
-68.49537412736751
 31
0.0
  0
LINE
  5
1081
330
1E
100
AcDbEntity
  8
0
  6
Continuous
 62
     5
370
     9
100
AcDbLine
 10
108.5502308901561
 20
-68.49537412736751
 30
0.0
 11
107.7664183173326
 21
-69.40402029099985
 31
0.0
  0
MTEXT
  5
1082
330
1E
100
AcDbEntity
  8
0
  6
Continuous
 62
     5
370
     9
100
AcDbMText
 10
119.5335503405613
 20
-68.49537412736751
 30
0.0
 40
2.0
 41
0.0
 71
     5
 72
     1
  1
\A1;\U+220552.0
 73
     1
 44
1.0
  0
SOLID
  5
1083
330
1E
100
AcDbEntity
  8
0
  6
Continuous
 62
     5
100
AcDbTrace
 10
107.6149772900606
 20
-69.27338486219594
 30
0.0
 11
107.9178593446047
 21
-69.53465571980375
 31
0.0
 12
106.9826057445092
 22
-70.31266645463222
 32
0.0
 13
106.9826057445092
 23
-70.31266645463222
 33
0.0
  0
LINE
  5
1086
330
1E
100
AcDbEntity
  8
0
  6
Continuous
 62
     5
370
     9
100
AcDbLine
 10
118.3063631198745
 20
-105.1481336407728
 30
0.0
 11
117.1063631198745
 21
-105.1481336407728
 31
0.0
  0
LINE
  5
1087
330
1E
100
AcDbEntity
  8
0
  6
Continuous
 62
     5
370
     9
100
AcDbLine
 10
117.1063631198745
 20
-105.1481336407728
 30
0.0
 11
107.6333308720803
 21
-99.85421952037492
 31
0.0
  0
MTEXT
  5
1088
330
1E
100
AcDbEntity
  8
0
  6
Continuous
 62
     5
370
     9
100
AcDbMText
 10
122.6396964532078
 20
-105.1481336407728
 30
0.0
 40
2.0
 41
0.0
 71
     5
 72
     1
  1
\A1;\U+220538.0
 73
     1
 44
1.0
  0
SOLID
  5
1089
330
1E
100
AcDbEntity
  8
0
  6
Continuous
 62
     5
100
AcDbTrace
 10
107.730897401985
 20
-99.67963208599789
 30
0.0
 11
107.5357643421756
 21
-100.0288069547519
 31
0.0
 12
106.5858062658181
 22
-99.26882034094672
 32
0.0
 13
106.5858062658181
 23
-99.26882034094672
 33
0.0
  0
LINE
  5
108C
330
1E
100
AcDbEntity
  8
0
  6
Continuous
 62
     5
100
AcDbLine
 10
60.62690974567151
 20
-80.81623848105875
 30
0.0
 11
61.82690974567151
 21
-80.81623848105875
 31
0.0
  0
LINE
  5
108D
330
1E
100
AcDbEntity
  8
0
  6
Continuous
 62
     5
100
AcDbLine
 10
61.82690974567151
 20
-80.81623848105875
 30
0.0
 11
66.99158800038976
 21
-82.49980151888017
 31
0.0
  0
SOLID
  5
108F
330
1E
100
AcDbEntity
  8
0
  6
Continuous
 62
     5
100
AcDbTrace
 10
67.05357311180399
 20
-82.30964935359414
 30
0.0
 11
66.92960288897555
 21
-82.68995368416621
 31
0.0
 12
68.13250099210597
 22
-82.87171218736546
 32
0.0
 13
68.13250099210597
 23
-82.87171218736546
 33
0.0
  0
MTEXT
  5
10BF
330
1E
100
AcDbEntity
  8
0
  6
Continuous
 62
     5
100
AcDbMText
 10
57.05686686594011
 20
-80.73896831699427
 30
0.0
 40
2.0
 41
0.0
 71
     5
 72
     1
  1
\A1;\U+220546.0
 73
     1
 44
1.0
  0
LINE
  5
10C5
330
1E
100
AcDbEntity
  8
0
  6
Continuous
 62
     5
370
     9
100
AcDbLine
 10
118.3063631198745
 20
-42.14813364077286
 30
0.0
 11
117.1063631198745
 21
-42.14813364077286
 31
0.0
  0
LINE
  5
10C6
330
1E
100
AcDbEntity
  8
0
  6
Continuous
 62
     5
370
     9
100
AcDbLine
 10
117.1063631198745
 20
-42.14813364077286
 30
0.0
 11
107.6333308720803
 21
-36.85421952037494
 31
0.0
  0
MTEXT
  5
10C7
330
1E
100
AcDbEntity
  8
0
  6
Continuous
 62
     5
370
     9
100
AcDbMText
 10
122.6396964532078
 20
-42.14813364077284
 30
0.0
 40
2.0
 41
0.0
 71
     5
 72
     1
  1
\A1;\U+220538.0
 73
     1
 44
1.0
  0
SOLID
  5
10C8
330
1E
100
AcDbEntity
  8
0
  6
Continuous
 62
     5
100
AcDbTrace
 10
107.730897401985
 20
-36.67963208599791
 30
0.0
 11
107.5357643421756
 21
-37.02880695475197
 31
0.0
 12
106.5858062658181
 22
-36.26882034094673
 32
0.0
 13
106.5858062658181
 23
-36.26882034094673
 33
0.0
  0
LINE
  5
10CB
330
1E
100
AcDbEntity
  8
0
  6
Continuous
 62
     5
370
     9
100
AcDbLine
 10
114.5698442957016
 20
-4.707037624004154
 30
0.0
 11
109.2302624444432
 21
-4.707037624004161
 31
0.0
  0
LINE
  5
10CC
330
1E
100
AcDbEntity
  8
0
  6
Continuous
 62
     5
370
     9
100
AcDbLine
 10
109.2302624444432
 20
-4.707037624004161
 30
0.0
 11
107.7664183173326
 21
-6.404020290999856
 31
0.0
  0
MTEXT
  5
10CD
330
1E
100
AcDbEntity
  8
0
  6
Continuous
 62
     5
370
     9
100
AcDbMText
 10
118.9031776290349
 20
-4.707037624004161
 30
0.0
 40
2.0
 41
0.0
 71
     5
 72
     1
  1
\A1;\U+220552.0
 73
     1
 44
1.0
  0
SOLID
  5
10CE
330
1E
100
AcDbEntity
  8
0
  6
Continuous
 62
     5
100
AcDbTrace
 10
107.6149772900606
 20
-6.273384862195936
 30
0.0
 11
107.9178593446047
 21
-6.534655719803769
 31
0.0
 12
106.9826057445092
 22
-7.312666454632218
 32
0.0
 13
106.9826057445092
 23
-7.312666454632218
 33
0.0
  0
LEADER
  5
1143
330
1E
100
AcDbEntity
  8
0
  6
Continuous
 62
     6
100
AcDbLeader
  3
Standard
 76
     2
 10
86.392609
 20
9.070871040461838
 30
0.0
 10
92.72789766375273
 20
15.12240330606135
 30
0.0
1001
ACAD
1000
DSTYLE
1002
{
1070
   147
1040
0.5
1070
    77
1070
     0
1002
}
  0
LINE
  5
1144
330
1E
100
AcDbEntity
  8
0
  6
Continuous
 62
     6
100
AcDbLine
 10
92.72789766375273
 20
15.12240330606135
 30
0.0
 11
97.80973877569977
 21
15.12240330606136
 31
0.0
  0
MTEXT
  5
114B
330
1E
100
AcDbEntity
  8
0
  6
Continuous
 62
     6
100
AcDbMText
 10
-7.061888982362916
 20
30.39679559837793
 30
0.0
 40
3.0
 41
73.23160128961581
 71
     1
 72
     5
  1
{\fMS UI Gothic|b0|i0|c128|p17;\C7;ロ－タ加工nc-data　Ｘ座標０基準点}
 73
     1
 44
1.0
  0
LWPOLYLINE
  5
1177
330
1E
100
AcDbEntity
  8
0
  6
Continuous
 62
     5
100
AcDbPolyline
 90
        4
 70
     1
 43
0.0
 10
53.22395396991089
 20
-12.55041128169256
 10
56.65408786957835
 20
-12.55041128169256
 10
56.65408786957835
 20
-5.437833918170671
 10
53.22395396991089
 20
-5.437833918170671
  0
MTEXT
  5
1186
330
1E
100
AcDbEntity
  8
0
  6
Continuous
 62
     0
370
     9
100
AcDbMText
 10
-114.7566378936011
 20
-103.9808142266518
 30
0.0
 40
4.559999999999998
 41
89.1624
 71
     1
 72
     5
  1
{\fMS UI Gothic|b0|i0|c128|p17;ＰＮ－ＩＮＤEＸ\fMS UI Gothic|b0|i0|c128|p49;５２\fMS UI Gothic|b0|i0|c128|p17;　10-16}
 73
     1
 44
1.0
  0
MTEXT
  5
118C
330
1E
100
AcDbEntity
  8
0
  6
Continuous
 62
     0
370
     9
100
AcDbMText
 10
66.70878777455607
 20
26.05137108483791
 30
0.0
 40
4.559999999999998
 41
72.42239999999999
 71
     1
 72
     5
  1
{\fMS UI Gothic|b0|i0|c128|p17;フランジ５２Φ}-{\fMS UI Gothic|b0|i0|c128|p17;（\fMS UI Gothic|b0|i0|c0|p17; \fMS UI Gothic|b0|i0|c128|p17;10-16）}
 73
     1
 44
1.0
  0
DIMENSION
  5
118D
330
1E
100
AcDbEntity
  8
0
  6
Continuous
 62
     5
100
AcDbDimension
  2
*D24
 10
69.49463328555019
 20
-37.41777019836462
 30
0.0
 11
118.9249811984927
 21
-12.30463700970686
 31
0.0
 70
   163
 71
     5
 42
46.0
  3
Standard
100
AcDbDiametricDimension
 15
110.5053667144498
 25
-16.58222980163538
 35
0.0
 40
0.0
1001
ACAD
1000
DSTYLE
1002
{
1070
   288
1070
     1
1002
}
  0
LINE
  5
12B7
102
{ACAD_REACTORS
330
12E9
102
}
330
1E
100
AcDbEntity
  8
BASE
100
AcDbLine
 10
0.0
 20
-1.000000000000003
 30
0.0
 11
1.0
 21
-0.0000000000000036
 31
0.0
  0
HATCH
  5
12E9
330
1E
100
AcDbEntity
  8
ﾊｯﾁﾝｸﾞ
  6
Continuous
 62
     4
370
    15
100
AcDbHatch
 10
0.0
 20
0.0
 30
0.0
210
0.0
220
0.0
230
1.0
  2
_USER
 70
     0
 71
     1
 91
        1
 92
        7
 72
     0
 73
     1
 93
        7
 10
30.5
 20
-1.0
 10
29.5
 20
-0.0000000000000036
 10
1.0
 20
-0.0000000000000036
 10
0.0
 20
-1.000000000000003
 10
0.0
 20
-12.0
 10
0.0
 20
-17.0
 10
30.5
 20
-17.0
 97
        7
330
422
330
68
330
12B7
330
6B9
330
8E
330
61
330
421
 75
     0
 76
     0
 52
45.0
 41
1.0
 77
     0
 78
     1
 53
45.0
 43
0.0
 44
0.0
 45
-0.7071067811865475
 46
0.7071067811865476
 79
     0
 47
0.0754057576273199
 98
        1
 10
14.40844516229708
 20
-9.804720822490594
  0
LINE
  5
12EA
330
1E
100
AcDbEntity
  8
BASE
  6
Continuous
 62
     0
100
AcDbLine
 10
-62.5
 20
-1.000000000000003
 30
0.0
 11
-126.5
 21
-1.000000000000003
 31
0.0
  0
HATCH
  5
132E
330
1E
100
AcDbEntity
  8
ﾊｯﾁﾝｸﾞ
  6
Continuous
 62
     4
370
    15
100
AcDbHatch
 10
0.0
 20
0.0
 30
0.0
210
0.0
220
0.0
230
1.0
  2
_USER
 70
     0
 71
     1
 91
        1
 92
        7
 72
     0
 73
     1
 93
        8
 10
30.5
 20
-50.0
 10
2.5
 20
-50.0
 10
2.5
 20
-42.0
 10
30.5
 20
-42.0
 10
30.5
 20
-37.0
 10
0.0
 20
-37.0
 10
0.0
 20
-90.0
 10
30.5
 20
-90.0
 97
        7
330
64
330
8A
330
63
330
52
330
62
330
8D
330
67
 75
     0
 76
     0
 52
45.0
 41
1.0
 77
     0
 78
     1
 53
45.0
 43
0.0
 44
0.0
 45
-0.7071067811865475
 46
0.7071067811865476
 79
     0
 47
0.1536635021256969
 98
        1
 10
17.04396149050228
 20
-68.94182278676573
  0
CIRCLE
  5
1560
330
1E
100
AcDbEntity
  8
BASE
  6
HIDDEN2
 62
     0
100
AcDbCircle
 10
-94.50000000000001
 20
-27.0
 30
0.0
 40
10.0
  0
LINE
  5
156F
330
1E
100
AcDbEntity
  8
ﾌﾗﾝｼﾞ
 62
     5
100
AcDbLine
 10
-0.05
 20
-12.0
 30
0.0
 11
-0.05
 21
-42.0
 31
0.0
  0
LINE
  5
1571
102
{ACAD_REACTORS
330
132E
102
}
330
1E
100
AcDbEntity
  8
ﾌﾗﾝｼﾞ
 62
     5
100
AcDbLine
 10
30.5
 20
-36.95
 30
0.0
 11
0.0
 21
-36.95
 31
0.0
  0
LINE
  5
1572
102
{ACAD_REACTORS
330
12E9
102
}
330
1E
100
AcDbEntity
  8
ﾌﾗﾝｼﾞ
 62
     5
100
AcDbLine
 10
30.5
 20
-17.05
 30
0.0
 11
0.0
 21
-17.05
 31
0.0
  0
LINE
  5
1573
330
1E
100
AcDbEntity
  8
ﾌﾗﾝｼﾞ
100
AcDbLine
 10
30.54999999999999
 20
-1.000000000000003
 30
0.0
 11
30.54999999999999
 21
-53.0
 31
0.0
  0
LINE
  5
1588
102
{ACAD_REACTORS
330
18E1
102
}
330
1E
100
AcDbEntity
  8
ﾌﾗﾝｼﾞ
 62
     5
100
AcDbLine
 10
-0.05
 20
-12.0
 30
0.0
 11
-0.05
 21
-42.0
 31
0.0
  0
LINE
  5
1593
102
{ACAD_REACTORS
330
18E1
102
}
330
1E
100
AcDbEntity
  8
ﾌﾗﾝｼﾞ
 62
     5
100
AcDbLine
 10
-7.069999999999993
 20
-42.0
 30
0.0
 11
-7.069999999999993
 21
-12.0
 31
0.0
  0
LINE
  5
159D
330
1E
100
AcDbEntity
  8
ﾌﾗﾝｼﾞ
 62
     5
100
AcDbLine
 10
30.5
 20
-17.05
 30
0.0
 11
30.5
 21
-36.95
 31
0.0
  0
LEADER
  5
16E5
330
1E
100
AcDbEntity
  8
0
 62
     5
100
AcDbLeader
  3
Standard
 76
     3
 10
38.55
 20
-38.63455444229169
 30
0.0
 10
62.96712551163864
 20
-38.63455444229169
 30
0.0
 10
62.96712551163864
 20
19.27651153239281
 30
0.0
1001
ACAD
1000
DSTYLE
1002
{
1070
   147
1040
0.5
1070
    77
1070
     0
1002
}
  0
LINE
  5
16E9
330
1E
100
AcDbEntity
  8
BASE
 62
     4
370
    15
100
AcDbLine
 10
10.54999999999999
 20
-46.0
 30
0.0
 11
-62.5
 21
-46.0
 31
0.0
  0
LINE
  5
16EA
330
1E
100
AcDbEntity
  8
BASE
  6
CENTER2
 62
     1
370
    15
100
AcDbLine
 10
-83.83890049383543
 20
-46.0
 30
0.0
 11
-105.1610995061645
 21
-46.0
 31
0.0
  0
CIRCLE
  5
16EB
330
1E
100
AcDbEntity
  8
BASE
  6
HIDDEN2
100
AcDbCircle
 10
-94.50000000000001
 20
-46.0
 30
0.0
 40
4.0
  0
LINE
  5
170B
102
{ACAD_REACTORS
330
175B
102
}
330
1E
100
AcDbEntity
  8
ｽﾌﾟﾘﾝｸﾞ
100
AcDbLine
 10
2.599999999999999
 20
-48.51369648945395
 30
0.0
 11
3.199999999999993
 21
-45.71369648945403
 31
0.0
  0
LINE
  5
170C
102
{ACAD_REACTORS
330
175B
102
}
330
1E
100
AcDbEntity
  8
ｽﾌﾟﾘﾝｸﾞ
100
AcDbLine
 10
4.502270150451996
 20
-44.40904280843696
 30
0.0
 11
5.490919398192096
 21
-49.02273929789082
 31
0.0
  0
LINE
  5
170D
102
{ACAD_REACTORS
330
175B
102
}
330
1E
100
AcDbEntity
  8
ｽﾌﾟﾘﾝｸﾞ
100
AcDbLine
 10
4.809080601807925
 20
-42.97726070210925
 30
0.0
 11
5.797729849548039
 21
-47.59095719156313
 31
0.0
  0
LINE
  5
170E
102
{ACAD_REACTORS
330
175B
102
}
330
1E
100
AcDbEntity
  8
ｽﾌﾟﾘﾝｸﾞ
100
AcDbLine
 10
2.593189548644096
 20
-49.5
 30
0.0
 11
4.093189548644081
 21
-42.5
 31
0.0
  0
LINE
  5
170F
102
{ACAD_REACTORS
330
175B
102
}
330
1E
100
AcDbEntity
  8
ｽﾌﾟﾘﾝｸﾞ
100
AcDbLine
 10
3.206810451355925
 20
-49.5
 30
0.0
 11
4.706810451355925
 21
-42.5
 31
0.0
  0
LINE
  5
1716
102
{ACAD_REACTORS
330
175B
102
}
330
1E
100
AcDbEntity
  8
ｽﾌﾟﾘﾝｸﾞ
100
AcDbLine
 10
2.599999999999999
 20
-48.51369648945395
 30
0.0
 11
2.6
 21
-42.5
 31
0.0
  0
LINE
  5
1717
102
{ACAD_REACTORS
330
175B
102
}
330
1E
100
AcDbEntity
  8
ｽﾌﾟﾘﾝｸﾞ
100
AcDbLine
 10
2.593189548644096
 20
-49.5
 30
0.0
 11
3.206810451355925
 21
-49.5
 31
0.0
  0
LINE
  5
1718
102
{ACAD_REACTORS
330
175B
102
}
330
1E
100
AcDbEntity
  8
ｽﾌﾟﾘﾝｸﾞ
100
AcDbLine
 10
5.490919398192096
 20
-49.02273929789082
 30
0.0
 11
5.797729849548039
 21
-47.59095719156313
 31
0.0
  0
LINE
  5
1719
102
{ACAD_REACTORS
330
175B
102
}
330
1E
100
AcDbEntity
  8
ｽﾌﾟﾘﾝｸﾞ
100
AcDbLine
 10
3.199999999999993
 20
-45.71369648945403
 30
0.0
 11
3.199999999999993
 21
-42.5
 31
0.0
  0
LINE
  5
171A
102
{ACAD_REACTORS
330
175B
102
}
330
1E
100
AcDbEntity
  8
ｽﾌﾟﾘﾝｸﾞ
100
AcDbLine
 10
2.6
 20
-42.5
 30
0.0
 11
3.199999999999993
 21
-42.5
 31
0.0
  0
LINE
  5
171B
102
{ACAD_REACTORS
330
175B
102
}
330
1E
100
AcDbEntity
  8
ｽﾌﾟﾘﾝｸﾞ
100
AcDbLine
 10
4.502270150451996
 20
-44.40904280843696
 30
0.0
 11
4.809080601807925
 21
-42.97726070210925
 31
0.0
  0
LINE
  5
171C
102
{ACAD_REACTORS
330
175B
102
}
330
1E
100
AcDbEntity
  8
ｽﾌﾟﾘﾝｸﾞ
100
AcDbLine
 10
4.093189548644081
 20
-42.5
 30
0.0
 11
4.706810451355925
 21
-42.5
 31
0.0
  0
LINE
  5
171D
102
{ACAD_REACTORS
330
175B
102
}
330
1E
100
AcDbEntity
  8
ｽﾌﾟﾘﾝｸﾞ
100
AcDbLine
 10
25.10681045135592
 20
-46.25452140421872
 30
0.0
 11
25.10681045135592
 21
-49.5
 31
0.0
  0
LINE
  5
171E
102
{ACAD_REACTORS
330
175B
102
}
330
1E
100
AcDbEntity
  8
ｽﾌﾟﾘﾝｸﾞ
100
AcDbLine
 10
25.70681045135592
 20
-43.45452140421858
 30
0.0
 11
25.70681045135591
 21
-49.5
 31
0.0
  0
LINE
  5
1721
102
{ACAD_REACTORS
330
175B
102
}
330
1E
100
AcDbEntity
  8
ｽﾌﾟﾘﾝｸﾞ
100
AcDbLine
 10
7.502270150451996
 20
-44.40904280843696
 30
0.0
 11
8.490919398192096
 21
-49.02273929789082
 31
0.0
  0
LINE
  5
1722
102
{ACAD_REACTORS
330
175B
102
}
330
1E
100
AcDbEntity
  8
ｽﾌﾟﾘﾝｸﾞ
100
AcDbLine
 10
7.809080601807925
 20
-42.97726070210925
 30
0.0
 11
8.797729849548039
 21
-47.59095719156313
 31
0.0
  0
LINE
  5
1723
102
{ACAD_REACTORS
330
175B
102
}
330
1E
100
AcDbEntity
  8
ｽﾌﾟﾘﾝｸﾞ
100
AcDbLine
 10
8.490919398192096
 20
-49.02273929789082
 30
0.0
 11
8.797729849548039
 21
-47.59095719156313
 31
0.0
  0
LINE
  5
1724
102
{ACAD_REACTORS
330
175B
102
}
330
1E
100
AcDbEntity
  8
ｽﾌﾟﾘﾝｸﾞ
100
AcDbLine
 10
7.502270150451996
 20
-44.40904280843696
 30
0.0
 11
7.809080601807925
 21
-42.97726070210925
 31
0.0
  0
LINE
  5
1725
102
{ACAD_REACTORS
330
175B
102
}
330
1E
100
AcDbEntity
  8
ｽﾌﾟﾘﾝｸﾞ
100
AcDbLine
 10
6.206810451355925
 20
-49.5
 30
0.0
 11
7.706810451355925
 21
-42.5
 31
0.0
  0
LINE
  5
1726
102
{ACAD_REACTORS
330
175B
102
}
330
1E
100
AcDbEntity
  8
ｽﾌﾟﾘﾝｸﾞ
100
AcDbLine
 10
5.593189548644096
 20
-49.5
 30
0.0
 11
7.093189548644081
 21
-42.5
 31
0.0
  0
LINE
  5
1727
102
{ACAD_REACTORS
330
175B
102
}
330
1E
100
AcDbEntity
  8
ｽﾌﾟﾘﾝｸﾞ
100
AcDbLine
 10
5.593189548644096
 20
-49.5
 30
0.0
 11
6.206810451355925
 21
-49.5
 31
0.0
  0
LINE
  5
1728
102
{ACAD_REACTORS
330
175B
102
}
330
1E
100
AcDbEntity
  8
ｽﾌﾟﾘﾝｸﾞ
100
AcDbLine
 10
7.093189548644081
 20
-42.5
 30
0.0
 11
7.706810451355925
 21
-42.5
 31
0.0
  0
LINE
  5
1729
102
{ACAD_REACTORS
330
175B
102
}
330
1E
100
AcDbEntity
  8
ｽﾌﾟﾘﾝｸﾞ
100
AcDbLine
 10
10.50227015045199
 20
-44.40904280843696
 30
0.0
 11
11.49091939819209
 21
-49.02273929789082
 31
0.0
  0
LINE
  5
172A
102
{ACAD_REACTORS
330
175B
102
}
330
1E
100
AcDbEntity
  8
ｽﾌﾟﾘﾝｸﾞ
100
AcDbLine
 10
10.80908060180792
 20
-42.97726070210925
 30
0.0
 11
11.79772984954803
 21
-47.59095719156313
 31
0.0
  0
LINE
  5
172B
102
{ACAD_REACTORS
330
175B
102
}
330
1E
100
AcDbEntity
  8
ｽﾌﾟﾘﾝｸﾞ
100
AcDbLine
 10
11.49091939819209
 20
-49.02273929789082
 30
0.0
 11
11.79772984954803
 21
-47.59095719156313
 31
0.0
  0
LINE
  5
172C
102
{ACAD_REACTORS
330
175B
102
}
330
1E
100
AcDbEntity
  8
ｽﾌﾟﾘﾝｸﾞ
100
AcDbLine
 10
10.50227015045199
 20
-44.40904280843696
 30
0.0
 11
10.80908060180792
 21
-42.97726070210925
 31
0.0
  0
LINE
  5
172D
102
{ACAD_REACTORS
330
175B
102
}
330
1E
100
AcDbEntity
  8
ｽﾌﾟﾘﾝｸﾞ
100
AcDbLine
 10
9.206810451355925
 20
-49.5
 30
0.0
 11
10.70681045135592
 21
-42.5
 31
0.0
  0
LINE
  5
172E
102
{ACAD_REACTORS
330
175B
102
}
330
1E
100
AcDbEntity
  8
ｽﾌﾟﾘﾝｸﾞ
100
AcDbLine
 10
8.593189548644096
 20
-49.5
 30
0.0
 11
10.09318954864408
 21
-42.5
 31
0.0
  0
LINE
  5
172F
102
{ACAD_REACTORS
330
175B
102
}
330
1E
100
AcDbEntity
  8
ｽﾌﾟﾘﾝｸﾞ
100
AcDbLine
 10
8.593189548644096
 20
-49.5
 30
0.0
 11
9.206810451355925
 21
-49.5
 31
0.0
  0
LINE
  5
1730
102
{ACAD_REACTORS
330
175B
102
}
330
1E
100
AcDbEntity
  8
ｽﾌﾟﾘﾝｸﾞ
100
AcDbLine
 10
10.09318954864408
 20
-42.5
 30
0.0
 11
10.70681045135592
 21
-42.5
 31
0.0
  0
LINE
  5
1731
102
{ACAD_REACTORS
330
175B
102
}
330
1E
100
AcDbEntity
  8
ｽﾌﾟﾘﾝｸﾞ
100
AcDbLine
 10
13.50227015045199
 20
-44.40904280843696
 30
0.0
 11
14.49091939819209
 21
-49.02273929789082
 31
0.0
  0
LINE
  5
1732
102
{ACAD_REACTORS
330
175B
102
}
330
1E
100
AcDbEntity
  8
ｽﾌﾟﾘﾝｸﾞ
100
AcDbLine
 10
13.80908060180792
 20
-42.97726070210925
 30
0.0
 11
14.79772984954804
 21
-47.59095719156313
 31
0.0
  0
LINE
  5
1733
102
{ACAD_REACTORS
330
175B
102
}
330
1E
100
AcDbEntity
  8
ｽﾌﾟﾘﾝｸﾞ
100
AcDbLine
 10
14.49091939819209
 20
-49.02273929789082
 30
0.0
 11
14.79772984954804
 21
-47.59095719156313
 31
0.0
  0
LINE
  5
1734
102
{ACAD_REACTORS
330
175B
102
}
330
1E
100
AcDbEntity
  8
ｽﾌﾟﾘﾝｸﾞ
100
AcDbLine
 10
13.50227015045199
 20
-44.40904280843696
 30
0.0
 11
13.80908060180792
 21
-42.97726070210925
 31
0.0
  0
LINE
  5
1735
102
{ACAD_REACTORS
330
175B
102
}
330
1E
100
AcDbEntity
  8
ｽﾌﾟﾘﾝｸﾞ
100
AcDbLine
 10
12.20681045135592
 20
-49.5
 30
0.0
 11
13.70681045135592
 21
-42.5
 31
0.0
  0
LINE
  5
1736
102
{ACAD_REACTORS
330
175B
102
}
330
1E
100
AcDbEntity
  8
ｽﾌﾟﾘﾝｸﾞ
100
AcDbLine
 10
11.59318954864409
 20
-49.5
 30
0.0
 11
13.09318954864408
 21
-42.5
 31
0.0
  0
LINE
  5
1737
102
{ACAD_REACTORS
330
175B
102
}
330
1E
100
AcDbEntity
  8
ｽﾌﾟﾘﾝｸﾞ
100
AcDbLine
 10
11.59318954864409
 20
-49.5
 30
0.0
 11
12.20681045135592
 21
-49.5
 31
0.0
  0
LINE
  5
1738
102
{ACAD_REACTORS
330
175B
102
}
330
1E
100
AcDbEntity
  8
ｽﾌﾟﾘﾝｸﾞ
100
AcDbLine
 10
13.09318954864408
 20
-42.5
 30
0.0
 11
13.70681045135592
 21
-42.5
 31
0.0
  0
LINE
  5
1739
102
{ACAD_REACTORS
330
175B
102
}
330
1E
100
AcDbEntity
  8
ｽﾌﾟﾘﾝｸﾞ
100
AcDbLine
 10
16.50227015045199
 20
-44.40904280843696
 30
0.0
 11
17.49091939819209
 21
-49.02273929789082
 31
0.0
  0
LINE
  5
173A
102
{ACAD_REACTORS
330
175B
102
}
330
1E
100
AcDbEntity
  8
ｽﾌﾟﾘﾝｸﾞ
100
AcDbLine
 10
16.80908060180792
 20
-42.97726070210925
 30
0.0
 11
17.79772984954804
 21
-47.59095719156313
 31
0.0
  0
LINE
  5
173B
102
{ACAD_REACTORS
330
175B
102
}
330
1E
100
AcDbEntity
  8
ｽﾌﾟﾘﾝｸﾞ
100
AcDbLine
 10
17.49091939819209
 20
-49.02273929789082
 30
0.0
 11
17.79772984954804
 21
-47.59095719156313
 31
0.0
  0
LINE
  5
173C
102
{ACAD_REACTORS
330
175B
102
}
330
1E
100
AcDbEntity
  8
ｽﾌﾟﾘﾝｸﾞ
100
AcDbLine
 10
16.50227015045199
 20
-44.40904280843696
 30
0.0
 11
16.80908060180792
 21
-42.97726070210925
 31
0.0
  0
LINE
  5
173D
102
{ACAD_REACTORS
330
175B
102
}
330
1E
100
AcDbEntity
  8
ｽﾌﾟﾘﾝｸﾞ
100
AcDbLine
 10
15.20681045135592
 20
-49.5
 30
0.0
 11
16.70681045135592
 21
-42.5
 31
0.0
  0
LINE
  5
173E
102
{ACAD_REACTORS
330
175B
102
}
330
1E
100
AcDbEntity
  8
ｽﾌﾟﾘﾝｸﾞ
100
AcDbLine
 10
14.59318954864409
 20
-49.5
 30
0.0
 11
16.09318954864408
 21
-42.5
 31
0.0
  0
LINE
  5
173F
102
{ACAD_REACTORS
330
175B
102
}
330
1E
100
AcDbEntity
  8
ｽﾌﾟﾘﾝｸﾞ
100
AcDbLine
 10
14.59318954864409
 20
-49.5
 30
0.0
 11
15.20681045135592
 21
-49.5
 31
0.0
  0
LINE
  5
1740
102
{ACAD_REACTORS
330
175B
102
}
330
1E
100
AcDbEntity
  8
ｽﾌﾟﾘﾝｸﾞ
100
AcDbLine
 10
16.09318954864408
 20
-42.5
 30
0.0
 11
16.70681045135592
 21
-42.5
 31
0.0
  0
LINE
  5
1741
102
{ACAD_REACTORS
330
175B
102
}
330
1E
100
AcDbEntity
  8
ｽﾌﾟﾘﾝｸﾞ
100
AcDbLine
 10
19.50227015045199
 20
-44.40904280843696
 30
0.0
 11
20.49091939819209
 21
-49.02273929789082
 31
0.0
  0
LINE
  5
1742
102
{ACAD_REACTORS
330
175B
102
}
330
1E
100
AcDbEntity
  8
ｽﾌﾟﾘﾝｸﾞ
100
AcDbLine
 10
19.80908060180792
 20
-42.97726070210925
 30
0.0
 11
20.79772984954804
 21
-47.59095719156313
 31
0.0
  0
LINE
  5
1743
102
{ACAD_REACTORS
330
175B
102
}
330
1E
100
AcDbEntity
  8
ｽﾌﾟﾘﾝｸﾞ
100
AcDbLine
 10
20.49091939819209
 20
-49.02273929789082
 30
0.0
 11
20.79772984954804
 21
-47.59095719156313
 31
0.0
  0
LINE
  5
1744
102
{ACAD_REACTORS
330
175B
102
}
330
1E
100
AcDbEntity
  8
ｽﾌﾟﾘﾝｸﾞ
100
AcDbLine
 10
19.50227015045199
 20
-44.40904280843696
 30
0.0
 11
19.80908060180792
 21
-42.97726070210925
 31
0.0
  0
LINE
  5
1745
102
{ACAD_REACTORS
330
175B
102
}
330
1E
100
AcDbEntity
  8
ｽﾌﾟﾘﾝｸﾞ
100
AcDbLine
 10
18.20681045135592
 20
-49.5
 30
0.0
 11
19.70681045135592
 21
-42.5
 31
0.0
  0
LINE
  5
1746
102
{ACAD_REACTORS
330
175B
102
}
330
1E
100
AcDbEntity
  8
ｽﾌﾟﾘﾝｸﾞ
100
AcDbLine
 10
17.59318954864409
 20
-49.5
 30
0.0
 11
19.09318954864408
 21
-42.5
 31
0.0
  0
LINE
  5
1747
102
{ACAD_REACTORS
330
175B
102
}
330
1E
100
AcDbEntity
  8
ｽﾌﾟﾘﾝｸﾞ
100
AcDbLine
 10
17.59318954864409
 20
-49.5
 30
0.0
 11
18.20681045135592
 21
-49.5
 31
0.0
  0
LINE
  5
1748
102
{ACAD_REACTORS
330
175B
102
}
330
1E
100
AcDbEntity
  8
ｽﾌﾟﾘﾝｸﾞ
100
AcDbLine
 10
19.09318954864408
 20
-42.5
 30
0.0
 11
19.70681045135592
 21
-42.5
 31
0.0
  0
LINE
  5
1749
102
{ACAD_REACTORS
330
175B
102
}
330
1E
100
AcDbEntity
  8
ｽﾌﾟﾘﾝｸﾞ
100
AcDbLine
 10
22.50227015045199
 20
-44.40904280843696
 30
0.0
 11
23.4909193981921
 21
-49.02273929789082
 31
0.0
  0
LINE
  5
174A
102
{ACAD_REACTORS
330
175B
102
}
330
1E
100
AcDbEntity
  8
ｽﾌﾟﾘﾝｸﾞ
100
AcDbLine
 10
22.80908060180792
 20
-42.97726070210925
 30
0.0
 11
23.79772984954804
 21
-47.59095719156313
 31
0.0
  0
LINE
  5
174B
102
{ACAD_REACTORS
330
175B
102
}
330
1E
100
AcDbEntity
  8
ｽﾌﾟﾘﾝｸﾞ
100
AcDbLine
 10
23.4909193981921
 20
-49.02273929789082
 30
0.0
 11
23.79772984954804
 21
-47.59095719156313
 31
0.0
  0
LINE
  5
174C
102
{ACAD_REACTORS
330
175B
102
}
330
1E
100
AcDbEntity
  8
ｽﾌﾟﾘﾝｸﾞ
100
AcDbLine
 10
22.50227015045199
 20
-44.40904280843696
 30
0.0
 11
22.80908060180792
 21
-42.97726070210925
 31
0.0
  0
LINE
  5
174D
102
{ACAD_REACTORS
330
175B
102
}
330
1E
100
AcDbEntity
  8
ｽﾌﾟﾘﾝｸﾞ
100
AcDbLine
 10
21.20681045135592
 20
-49.5
 30
0.0
 11
22.70681045135592
 21
-42.5
 31
0.0
  0
LINE
  5
174E
102
{ACAD_REACTORS
330
175B
102
}
330
1E
100
AcDbEntity
  8
ｽﾌﾟﾘﾝｸﾞ
100
AcDbLine
 10
20.59318954864409
 20
-49.5
 30
0.0
 11
22.09318954864408
 21
-42.5
 31
0.0
  0
LINE
  5
174F
102
{ACAD_REACTORS
330
175B
102
}
330
1E
100
AcDbEntity
  8
ｽﾌﾟﾘﾝｸﾞ
100
AcDbLine
 10
20.59318954864409
 20
-49.5
 30
0.0
 11
21.20681045135592
 21
-49.5
 31
0.0
  0
LINE
  5
1750
102
{ACAD_REACTORS
330
175B
102
}
330
1E
100
AcDbEntity
  8
ｽﾌﾟﾘﾝｸﾞ
100
AcDbLine
 10
22.09318954864408
 20
-42.5
 30
0.0
 11
22.70681045135592
 21
-42.5
 31
0.0
  0
LINE
  5
1754
102
{ACAD_REACTORS
330
175B
102
}
330
1E
100
AcDbEntity
  8
ｽﾌﾟﾘﾝｸﾞ
100
AcDbLine
 10
25.10681045135592
 20
-46.25452140421872
 30
0.0
 11
25.70681045135592
 21
-43.45452140421858
 31
0.0
  0
LINE
  5
1755
102
{ACAD_REACTORS
330
175B
102
}
330
1E
100
AcDbEntity
  8
ｽﾌﾟﾘﾝｸﾞ
100
AcDbLine
 10
24.20681045135593
 20
-49.5
 30
0.0
 11
25.70681045135593
 21
-42.5
 31
0.0
  0
LINE
  5
1756
102
{ACAD_REACTORS
330
175B
102
}
330
1E
100
AcDbEntity
  8
ｽﾌﾟﾘﾝｸﾞ
100
AcDbLine
 10
23.59318954864409
 20
-49.5
 30
0.0
 11
25.09318954864408
 21
-42.5
 31
0.0
  0
LINE
  5
1757
102
{ACAD_REACTORS
330
175B
102
}
330
1E
100
AcDbEntity
  8
ｽﾌﾟﾘﾝｸﾞ
100
AcDbLine
 10
23.59318954864409
 20
-49.5
 30
0.0
 11
24.20681045135593
 21
-49.5
 31
0.0
  0
LINE
  5
1758
102
{ACAD_REACTORS
330
175B
102
}
330
1E
100
AcDbEntity
  8
ｽﾌﾟﾘﾝｸﾞ
100
AcDbLine
 10
25.09318954864408
 20
-42.5
 30
0.0
 11
25.70681045135593
 21
-42.5
 31
0.0
  0
LINE
  5
1759
102
{ACAD_REACTORS
330
175B
102
}
330
1E
100
AcDbEntity
  8
ｽﾌﾟﾘﾝｸﾞ
100
AcDbLine
 10
25.10681045135592
 20
-49.5
 30
0.0
 11
25.70681045135591
 21
-49.5
 31
0.0
  0
HATCH
  5
175B
330
1E
100
AcDbEntity
  8
ｽﾌﾟﾘﾝｸﾞ
370
    15
100
AcDbHatch
 10
0.0
 20
0.0
 30
0.0
210
0.0
220
0.0
230
1.0
  2
_USER
 70
     0
 71
     1
 91
       17
 92
       17
 93
        4
 72
     1
 10
25.10681045135592
 20
-49.5
 11
25.70681045135591
 21
-49.5
 72
     1
 10
25.70681045135591
 20
-49.5
 11
25.70681045135592
 21
-43.45452140421858
 72
     1
 10
25.70681045135592
 20
-43.45452140421858
 11
25.10681045135592
 21
-46.25452140421872
 72
     1
 10
25.10681045135592
 20
-46.25452140421872
 11
25.10681045135592
 21
-49.5
 97
        4
330
1759
330
171E
330
1754
330
171D
 92
        1
 93
        4
 72
     1
 10
25.09318954864408
 20
-42.5
 11
25.70681045135593
 21
-42.5
 72
     1
 10
25.70681045135593
 20
-42.5
 11
24.20681045135593
 21
-49.5
 72
     1
 10
24.20681045135593
 20
-49.5
 11
23.59318954864409
 21
-49.5
 72
     1
 10
23.59318954864409
 20
-49.5
 11
25.09318954864408
 21
-42.5
 97
        4
330
1758
330
1755
330
1757
330
1756
 92
        1
 93
        4
 72
     1
 10
22.09318954864408
 20
-42.5
 11
22.70681045135592
 21
-42.5
 72
     1
 10
22.70681045135592
 20
-42.5
 11
21.20681045135592
 21
-49.5
 72
     1
 10
21.20681045135592
 20
-49.5
 11
20.59318954864409
 21
-49.5
 72
     1
 10
20.59318954864409
 20
-49.5
 11
22.09318954864408
 21
-42.5
 97
        4
330
1750
330
174D
330
174F
330
174E
 92
        1
 93
        4
 72
     1
 10
22.50227015045199
 20
-44.40904280843696
 11
22.80908060180792
 21
-42.97726070210925
 72
     1
 10
22.80908060180792
 20
-42.97726070210925
 11
23.79772984954804
 21
-47.59095719156313
 72
     1
 10
23.79772984954804
 20
-47.59095719156313
 11
23.4909193981921
 21
-49.02273929789082
 72
     1
 10
23.4909193981921
 20
-49.02273929789082
 11
22.50227015045199
 21
-44.40904280843696
 97
        4
330
174C
330
174A
330
174B
330
1749
 92
        1
 93
        4
 72
     1
 10
19.09318954864408
 20
-42.5
 11
19.70681045135592
 21
-42.5
 72
     1
 10
19.70681045135592
 20
-42.5
 11
18.20681045135592
 21
-49.5
 72
     1
 10
18.20681045135592
 20
-49.5
 11
17.59318954864409
 21
-49.5
 72
     1
 10
17.59318954864409
 20
-49.5
 11
19.09318954864408
 21
-42.5
 97
        4
330
1748
330
1745
330
1747
330
1746
 92
        1
 93
        4
 72
     1
 10
19.50227015045199
 20
-44.40904280843696
 11
19.80908060180792
 21
-42.97726070210925
 72
     1
 10
19.80908060180792
 20
-42.97726070210925
 11
20.79772984954804
 21
-47.59095719156313
 72
     1
 10
20.79772984954804
 20
-47.59095719156313
 11
20.49091939819209
 21
-49.02273929789082
 72
     1
 10
20.49091939819209
 20
-49.02273929789082
 11
19.50227015045199
 21
-44.40904280843696
 97
        4
330
1744
330
1742
330
1743
330
1741
 92
        1
 93
        4
 72
     1
 10
16.09318954864408
 20
-42.5
 11
16.70681045135592
 21
-42.5
 72
     1
 10
16.70681045135592
 20
-42.5
 11
15.20681045135592
 21
-49.5
 72
     1
 10
15.20681045135592
 20
-49.5
 11
14.59318954864409
 21
-49.5
 72
     1
 10
14.59318954864409
 20
-49.5
 11
16.09318954864408
 21
-42.5
 97
        4
330
1740
330
173D
330
173F
330
173E
 92
        1
 93
        4
 72
     1
 10
16.50227015045199
 20
-44.40904280843696
 11
16.80908060180792
 21
-42.97726070210925
 72
     1
 10
16.80908060180792
 20
-42.97726070210925
 11
17.79772984954804
 21
-47.59095719156313
 72
     1
 10
17.79772984954804
 20
-47.59095719156313
 11
17.49091939819209
 21
-49.02273929789082
 72
     1
 10
17.49091939819209
 20
-49.02273929789082
 11
16.50227015045199
 21
-44.40904280843696
 97
        4
330
173C
330
173A
330
173B
330
1739
 92
        1
 93
        4
 72
     1
 10
13.09318954864408
 20
-42.5
 11
13.70681045135592
 21
-42.5
 72
     1
 10
13.70681045135592
 20
-42.5
 11
12.20681045135592
 21
-49.5
 72
     1
 10
12.20681045135592
 20
-49.5
 11
11.59318954864409
 21
-49.5
 72
     1
 10
11.59318954864409
 20
-49.5
 11
13.09318954864408
 21
-42.5
 97
        4
330
1738
330
1735
330
1737
330
1736
 92
        1
 93
        4
 72
     1
 10
13.50227015045199
 20
-44.40904280843696
 11
13.80908060180792
 21
-42.97726070210925
 72
     1
 10
13.80908060180792
 20
-42.97726070210925
 11
14.79772984954804
 21
-47.59095719156313
 72
     1
 10
14.79772984954804
 20
-47.59095719156313
 11
14.49091939819209
 21
-49.02273929789082
 72
     1
 10
14.49091939819209
 20
-49.02273929789082
 11
13.50227015045199
 21
-44.40904280843696
 97
        4
330
1734
330
1732
330
1733
330
1731
 92
        1
 93
        4
 72
     1
 10
10.09318954864408
 20
-42.5
 11
10.70681045135592
 21
-42.5
 72
     1
 10
10.70681045135592
 20
-42.5
 11
9.206810451355925
 21
-49.5
 72
     1
 10
9.206810451355925
 20
-49.5
 11
8.593189548644096
 21
-49.5
 72
     1
 10
8.593189548644096
 20
-49.5
 11
10.09318954864408
 21
-42.5
 97
        4
330
1730
330
172D
330
172F
330
172E
 92
        1
 93
        4
 72
     1
 10
10.50227015045199
 20
-44.40904280843696
 11
10.80908060180792
 21
-42.97726070210925
 72
     1
 10
10.80908060180792
 20
-42.97726070210925
 11
11.79772984954803
 21
-47.59095719156313
 72
     1
 10
11.79772984954803
 20
-47.59095719156313
 11
11.49091939819209
 21
-49.02273929789082
 72
     1
 10
11.49091939819209
 20
-49.02273929789082
 11
10.50227015045199
 21
-44.40904280843696
 97
        4
330
172C
330
172A
330
172B
330
1729
 92
        1
 93
        4
 72
     1
 10
7.093189548644081
 20
-42.5
 11
7.706810451355925
 21
-42.5
 72
     1
 10
7.706810451355925
 20
-42.5
 11
6.206810451355925
 21
-49.5
 72
     1
 10
6.206810451355925
 20
-49.5
 11
5.593189548644096
 21
-49.5
 72
     1
 10
5.593189548644096
 20
-49.5
 11
7.093189548644081
 21
-42.5
 97
        4
330
1728
330
1725
330
1727
330
1726
 92
        1
 93
        4
 72
     1
 10
7.502270150451996
 20
-44.40904280843696
 11
7.809080601807925
 21
-42.97726070210925
 72
     1
 10
7.809080601807925
 20
-42.97726070210925
 11
8.797729849548039
 21
-47.59095719156313
 72
     1
 10
8.797729849548039
 20
-47.59095719156313
 11
8.490919398192096
 21
-49.02273929789082
 72
     1
 10
8.490919398192096
 20
-49.02273929789082
 11
7.502270150451996
 21
-44.40904280843696
 97
        4
330
1724
330
1722
330
1723
330
1721
 92
        1
 93
        4
 72
     1
 10
4.093189548644081
 20
-42.5
 11
4.706810451355925
 21
-42.5
 72
     1
 10
4.706810451355925
 20
-42.5
 11
3.206810451355925
 21
-49.5
 72
     1
 10
3.206810451355925
 20
-49.5
 11
2.593189548644096
 21
-49.5
 72
     1
 10
2.593189548644096
 20
-49.5
 11
4.093189548644081
 21
-42.5
 97
        4
330
171C
330
170F
330
1717
330
170E
 92
        1
 93
        4
 72
     1
 10
4.502270150451996
 20
-44.40904280843696
 11
4.809080601807925
 21
-42.97726070210925
 72
     1
 10
4.809080601807925
 20
-42.97726070210925
 11
5.797729849548039
 21
-47.59095719156313
 72
     1
 10
5.797729849548039
 20
-47.59095719156313
 11
5.490919398192096
 21
-49.02273929789082
 72
     1
 10
5.490919398192096
 20
-49.02273929789082
 11
4.502270150451996
 21
-44.40904280843696
 97
        4
330
171B
330
170D
330
1718
330
170C
 92
       17
 93
        4
 72
     1
 10
2.6
 20
-42.5
 11
3.199999999999993
 21
-42.5
 72
     1
 10
3.199999999999993
 20
-42.5
 11
3.199999999999993
 21
-45.71369648945403
 72
     1
 10
3.199999999999993
 20
-45.71369648945403
 11
2.599999999999999
 21
-48.51369648945395
 72
     1
 10
2.599999999999999
 20
-48.51369648945395
 11
2.6
 21
-42.5
 97
        4
330
171A
330
1719
330
170B
330
1716
 75
     0
 76
     0
 52
90.0
 41
0.2
 77
     0
 78
     1
 53
90.0
 43
0.0
 44
0.0
 45
-0.2
 46
0.0
 79
     0
 98
        1
 10
0.0
 20
0.0
  0
LINE
  5
1772
330
1E
100
AcDbEntity
  8
0
 62
     5
100
AcDbLine
 10
39.62210652466317
 20
-54.96263817222667
 30
0.0
 11
32.22972330720399
 21
-49.3324498292664
 31
0.0
  0
MTEXT
  5
1773
330
1E
100
AcDbEntity
  8
0
 62
     5
100
AcDbMText
 10
42.83741741841686
 20
-57.41148388009666
 30
0.0
 40
2.5
 41
0.0
 71
     5
 72
     1
  1
{\fMS UI Gothic|b0|i0|c128|p17;球}\U+22058.0
 11
0.7986355100472929
 21
-0.6018150231520484
 31
0.0
 73
     1
 44
1.0
  0
SOLID
  5
1774
330
1E
100
AcDbEntity
  8
0
 62
     5
100
AcDbTrace
 10
32.38119829944337
 20
-49.13356461934348
 30
0.0
 11
32.07824831496461
 21
-49.5313350391893
 31
0.0
 12
31.03641204766653
 22
-48.42359987583011
 32
0.0
 13
31.03641204766653
 23
-48.42359987583011
 33
0.0
  0
LINE
  5
1775
330
1E
100
AcDbEntity
  8
0
 62
     5
100
AcDbLine
 10
27.76424868890001
 20
-46.0
 30
0.0
 11
27.94424868890001
 21
-46.0
 31
0.0
  0
LINE
  5
1776
330
1E
100
AcDbEntity
  8
0
 62
     5
100
AcDbLine
 10
27.85424868890001
 20
-46.09
 30
0.0
 11
27.85424868890001
 21
-45.91
 31
0.0
  0
LEADER
  5
1777
330
1E
100
AcDbEntity
  8
0
 62
     5
100
AcDbLeader
  3
Standard
 73
     0
 74
     0
 75
     1
 40
2.602272727272727
 41
31.22727272727273
 76
     3
 10
18.20681045135592
 20
-49.5
 30
0.0
 10
34.96906293086761
 20
-64.60597114620487
 30
0.0
 10
36.46906293086761
 20
-64.60597114620487
 30
0.0
340
1778
213
0.0
223
-1.25
233
0.0
1001
ACAD
1000
DSTYLE
1002
{
1070
   147
1040
0.5
1070
    77
1070
     0
1002
}
  0
MTEXT
  5
1778
102
{ACAD_REACTORS
330
1777
102
}
330
1E
100
AcDbEntity
  8
0
 62
     5
100
AcDbMText
 10
36.9690629308676
 20
-63.35597114620487
 30
0.0
 40
2.0
 41
0.0
 71
     1
 72
     1
  1
{\fMS UI Gothic|b0|i0|c128|p17;押しﾊﾞﾈ　7～7.9Φ-0.6*30}
 73
     1
 44
1.0
  0
LINE
  5
17D2
102
{ACAD_REACTORS
330
18CE
102
}
330
1E
100
AcDbEntity
  8
ﾌﾗﾝｼﾞ
 62
     5
100
AcDbLine
 10
-20.55
 20
-83.0
 30
0.0
 11
-17.95
 21
-85.6
 31
0.0
  0
LINE
  5
17D3
102
{ACAD_REACTORS
330
18CE
102
}
330
1E
100
AcDbEntity
  8
ﾌﾗﾝｼﾞ
 62
     5
100
AcDbLine
 10
-20.55
 20
-91.0
 30
0.0
 11
-17.95
 21
-88.40000000000001
 31
0.0
  0
LINE
  5
17D7
330
1E
100
AcDbEntity
  8
ﾌﾗﾝｼﾞ
  6
CENTER2
 62
     1
100
AcDbLine
 10
-21.13364881040922
 20
-87.0
 30
0.0
 11
-26.06635118959074
 21
-87.0
 31
0.0
  0
LINE
  5
17D8
330
1E
100
AcDbEntity
  8
ﾌﾗﾝｼﾞ
 62
     5
100
AcDbLine
 10
-20.55
 20
-83.0
 30
0.0
 11
-20.55
 21
-87.0
 31
0.0
  0
LINE
  5
17D9
102
{ACAD_REACTORS
330
18CE
102
}
330
1E
100
AcDbEntity
  8
ﾌﾗﾝｼﾞ
  6
Continuous
 62
     5
100
AcDbLine
 10
-20.55
 20
-91.0
 30
0.0
 11
-21.61999999999999
 21
-91.0
 31
0.0
  0
LINE
  5
17DA
330
1E
100
AcDbEntity
  8
ﾌﾗﾝｼﾞ
  6
Continuous
 62
     3
100
AcDbLine
 10
-17.18999999999998
 20
-87.03949493661164
 30
0.0
 11
-17.15050506338833
 21
-87.0
 31
0.0
  0
LINE
  5
17DB
330
1E
100
AcDbEntity
  8
ﾌﾗﾝｼﾞ
 62
     5
100
AcDbLine
 10
-20.55
 20
-91.0
 30
0.0
 11
-20.55
 21
-87.0
 31
0.0
  0
LINE
  5
17DC
102
{ACAD_REACTORS
330
18CE
102
}
330
1E
100
AcDbEntity
  8
ﾌﾗﾝｼﾞ
  6
Continuous
 62
     5
100
AcDbLine
 10
-20.55
 20
-83.0
 30
0.0
 11
-21.61999999999999
 21
-83.0
 31
0.0
  0
LINE
  5
17DD
330
1E
100
AcDbEntity
  8
ﾌﾗﾝｼﾞ
 62
     5
100
AcDbLine
 10
-17.95
 20
-85.6
 30
0.0
 11
-17.95
 21
-87.0
 31
0.0
  0
LINE
  5
17DE
330
1E
100
AcDbEntity
  8
ﾌﾗﾝｼﾞ
 62
     5
100
AcDbLine
 10
-17.95
 20
-88.40000000000001
 30
0.0
 11
-17.95
 21
-87.0
 31
0.0
  0
LINE
  5
17E2
330
1E
100
AcDbEntity
  8
ﾌﾗﾝｼﾞ
  6
CENTER2
 62
     1
100
AcDbLine
 10
-3.642489250791761
 20
-87.0
 30
0.0
 11
-18.55545344322523
 21
-87.0
 31
0.0
  0
LINE
  5
17E5
102
{ACAD_REACTORS
330
18CE
102
}
330
1E
100
AcDbEntity
  8
ﾌﾗﾝｼﾞ
 62
     5
100
AcDbLine
 10
-4.170335480012358
 20
-85.0
 30
0.0
 11
-18.55
 21
-85.0
 31
0.0
  0
LINE
  5
17E6
102
{ACAD_REACTORS
330
18CE
102
}
330
1E
100
AcDbEntity
  8
ﾌﾗﾝｼﾞ
 62
     5
100
AcDbLine
 10
-3.606575316832163
 20
-89.0
 30
0.0
 11
-18.55
 21
-89.0
 31
0.0
  0
LINE
  5
17E7
330
1E
100
AcDbEntity
  8
ﾌﾗﾝｼﾞ
 62
     5
100
AcDbLine
 10
-17.94999999999999
 20
-85.6
 30
0.0
 11
-3.430585113098943
 21
-85.6
 31
0.0
  0
LINE
  5
17E8
330
1E
100
AcDbEntity
  8
ﾌﾗﾝｼﾞ
 62
     5
100
AcDbLine
 10
-17.95
 20
-88.40000000000001
 30
0.0
 11
-3.937387962276541
 21
-88.40000000000001
 31
0.0
  0
LINE
  5
17EA
102
{ACAD_REACTORS
330
18CE
102
}
330
1E
100
AcDbEntity
  8
ﾌﾗﾝｼﾞ
100
AcDbLine
 10
-7.119999999999993
 20
-74.5
 30
0.0
 11
-7.11999999999999
 21
-99.50000000000001
 31
0.0
  0
SPLINE
  5
17EB
330
1E
100
AcDbEntity
  8
ﾌﾗﾝｼﾞ
 62
     5
100
AcDbSpline
210
0.0
220
0.0
230
1.0
 70
     8
 71
     3
 72
    10
 73
     6
 74
     4
 42
0.0000000001
 43
0.0000000001
 44
0.0000000001
 40
0.0
 40
0.0
 40
0.0
 40
0.0
 40
1.634684773990476
 40
3.254887655749688
 40
4.736136280820743
 40
4.736136280820743
 40
4.736136280820743
 40
4.736136280820743
 10
-4.17033548001234
 20
-85.0
 30
0.0
 10
-3.609731098394437
 20
-85.41436483416699
 30
0.0
 10
-2.493488804760686
 20
-86.23942358871484
 30
0.0
 10
-4.510410474296268
 20
-87.49326102940361
 30
0.0
 10
-3.898718495689717
 20
-88.51298252901157
 30
0.0
 10
-3.606575316832163
 20
-89.0
 30
0.0
 11
-4.17033548001234
 21
-85.0
 31
0.0
 11
-3.119692154428207
 21
-86.25233498422819
 31
0.0
 11
-4.042207789553685
 21
-87.58425926173419
 31
0.0
 11
-3.606575316832163
 21
-89.0
 31
0.0
  0
LINE
  5
17EC
102
{ACAD_REACTORS
330
18CE
102
}
330
1E
100
AcDbEntity
  8
ﾌﾗﾝｼﾞ
100
AcDbLine
 10
-22.11999999999999
 20
-73.5
 30
0.0
 11
-22.11999999999999
 21
-74.0
 31
0.0
  0
LINE
  5
17ED
102
{ACAD_REACTORS
330
18CE
102
}
330
1E
100
AcDbEntity
  8
ﾌﾗﾝｼﾞ
100
AcDbLine
 10
-7.119999999999993
 20
-74.5
 30
0.0
 11
-17.11999999999999
 21
-74.50000000000001
 31
0.0
  0
LINE
  5
17EE
102
{ACAD_REACTORS
330
18CE
102
}
330
1E
100
AcDbEntity
  8
ﾌﾗﾝｼﾞ
100
AcDbLine
 10
-7.11999999999999
 20
-99.50000000000001
 30
0.0
 11
-17.11999999999999
 21
-99.50000000000002
 31
0.0
  0
LINE
  5
17EF
102
{ACAD_REACTORS
330
18CE
102
}
330
1E
100
AcDbEntity
  8
ﾌﾗﾝｼﾞ
100
AcDbLine
 10
-17.11999999999999
 20
-73.49999999999998
 30
0.0
 11
-17.11999999999999
 21
-100.5
 31
0.0
  0
LINE
  5
17F0
102
{ACAD_REACTORS
330
18CE
102
}
330
1E
100
AcDbEntity
  8
ﾌﾗﾝｼﾞ
100
AcDbLine
 10
-17.11999999999999
 20
-73.49999999999998
 30
0.0
 11
-22.11999999999999
 21
-73.5
 31
0.0
  0
LINE
  5
17F1
102
{ACAD_REACTORS
330
18CE
102
}
330
1E
100
AcDbEntity
  8
ﾌﾗﾝｼﾞ
100
AcDbLine
 10
-17.11999999999999
 20
-100.5
 30
0.0
 11
-22.11999999999999
 21
-100.5
 31
0.0
  0
LINE
  5
17F2
102
{ACAD_REACTORS
330
18CE
102
}
330
1E
100
AcDbEntity
  8
ﾌﾗﾝｼﾞ
100
AcDbLine
 10
-21.61999999999999
 20
-74.0
 30
0.0
 11
-26.61999999999998
 21
-74.0
 31
0.0
  0
LINE
  5
17F3
102
{ACAD_REACTORS
330
18CE
102
}
330
1E
100
AcDbEntity
  8
ﾌﾗﾝｼﾞ
100
AcDbLine
 10
-21.61999999999999
 20
-100.0
 30
0.0
 11
-26.61999999999999
 21
-100.0
 31
0.0
  0
LINE
  5
17F4
102
{ACAD_REACTORS
330
18CE
102
}
330
1E
100
AcDbEntity
  8
ﾌﾗﾝｼﾞ
100
AcDbLine
 10
-21.61999999999999
 20
-74.0
 30
0.0
 11
-21.61999999999999
 21
-100.0
 31
0.0
  0
LINE
  5
17F5
330
1E
100
AcDbEntity
  8
ﾌﾗﾝｼﾞ
100
AcDbLine
 10
-26.61999999999998
 20
-74.0
 30
0.0
 11
-26.61999999999999
 21
-100.0
 31
0.0
  0
LINE
  5
17F6
102
{ACAD_REACTORS
330
18CE
102
}
330
1E
100
AcDbEntity
  8
ﾌﾗﾝｼﾞ
100
AcDbLine
 10
-22.11999999999999
 20
-100.0
 30
0.0
 11
-22.11999999999999
 21
-100.5
 31
0.0
  0
LINE
  5
17F7
330
1E
100
AcDbEntity
  8
ﾌﾗﾝｼﾞ
  6
HIDDEN2
100
AcDbLine
 10
-22.11999999999999
 20
-74.0
 30
0.0
 11
-22.11999999999999
 21
-100.0
 31
0.0
  0
MTEXT
  5
17FE
330
1E
100
AcDbEntity
  8
0
  6
Continuous
 62
     6
100
AcDbMText
 10
-35.70362064911205
 20
-102.9944636295536
 30
0.0
 40
3.0
 41
49.74516663296606
 71
     1
 72
     5
  1
{\fMS UI Gothic|b0|i0|c128|p17;\C7;刻印ロ－タ26Φ用治具}
 73
     1
 44
1.0
  0
MTEXT
  5
1805
330
1E
100
AcDbEntity
  8
0
  6
Continuous
 62
     1
100
AcDbMText
 10
-49.49903801513688
 20
-98.36731885345251
 30
0.0
 40
2.5
 41
22.4845
 71
     1
 72
     5
  1
{\fMS UI Gothic|b0|i0|c128|p17;\C7;刻印ロ－タ\H1.2x;26}
 73
     1
 44
1.0
  0
HATCH
  5
1849
330
1E
100
AcDbEntity
  8
ﾊｯﾁﾝｸﾞ
 62
     3
100
AcDbHatch
 10
0.0
 20
0.0
 30
0.0
210
0.0
220
0.0
230
1.0
  2
_USER
 70
     0
 71
     1
 91
        2
 92
        7
 72
     0
 73
     1
 93
        6
 10
-17.18999999999998
 20
-17.0
 10
-22.18999999999998
 20
-17.0
 10
-22.18999999999998
 20
-17.51999999999999
 10
-21.68999999999998
 20
-17.51999999999999
 10
-21.68999999999998
 20
-23.0
 10
-17.18999999999998
 20
-23.00000000000001
 97
        6
330
9AC
330
A31
330
96A
330
A2F
330
9B1
330
A0C
 92
        7
 72
     0
 73
     1
 93
        6
 10
-17.18999999999998
 20
-31.0
 10
-21.68999999999998
 20
-31.0
 10
-21.68999999999998
 20
-36.47999999999999
 10
-22.18999999999998
 20
-36.48
 10
-22.18999999999998
 20
-37.0
 10
-17.18999999999999
 20
-37.00000000000001
 97
        6
330
9B2
330
A2F
330
96B
330
A30
330
9AD
330
A0C
 75
     0
 76
     0
 52
45.0
 41
0.5
 77
     0
 78
     1
 53
45.0
 43
0.0
 44
0.0
 45
-0.3535533905932737
 46
0.3535533905932738
 79
     0
 47
0.1640753179044487
 98
        2
 10
-19.43052867650453
 20
-20.52831755090704
 10
-19.10223077937064
 20
-35.45917149036432
  0
LINE
  5
184A
330
1E
100
AcDbEntity
  8
ﾌﾗﾝｼﾞ
  6
CENTER2
 62
     1
100
AcDbLine
 10
-24.11999999999998
 20
-74.0
 30
0.0
 11
-24.11999999999999
 21
-100.0
 31
0.0
  0
LINE
  5
184B
330
1E
100
AcDbEntity
  8
ﾌﾗﾝｼﾞ
  6
CENTER2
 62
     1
100
AcDbLine
 10
35.64513948432104
 20
-19.0
 30
0.0
 11
23.63447938683543
 21
-19.0
 31
0.0
  0
LINE
  5
184F
330
1E
100
AcDbEntity
  8
ﾌﾗﾝｼﾞ
100
AcDbLine
 10
34.34999999999999
 20
-18.0
 30
0.0
 11
24.75
 21
-18.0
 31
0.0
  0
LINE
  5
1850
330
1E
100
AcDbEntity
  8
ﾌﾗﾝｼﾞ
100
AcDbLine
 10
34.34999999999999
 20
-20.0
 30
0.0
 11
24.74999999999999
 21
-20.0
 31
0.0
  0
LINE
  5
1851
330
1E
100
AcDbEntity
  8
ﾊｯﾁﾝｸﾞ
 62
     3
100
AcDbLine
 10
51.18905991890722
 20
-19.0
 30
0.0
 11
90.0
 21
-19.0
 31
0.0
  0
CIRCLE
  5
1852
330
1E
100
AcDbEntity
  8
ﾌﾗﾝｼﾞ
100
AcDbCircle
 10
90.0
 20
-19.0
 30
0.0
 40
1.0
  0
LINE
  5
1853
330
1E
100
AcDbEntity
  8
ﾌﾗﾝｼﾞ
  6
CENTER2
 62
     1
100
AcDbLine
 10
94.25
 20
-82.0
 30
0.0
 11
85.75000000000001
 21
-82.0
 31
0.0
  0
CIRCLE
  5
1854
330
1E
100
AcDbEntity
  8
ﾌﾗﾝｼﾞ
100
AcDbCircle
 10
90.0
 20
-82.0
 30
0.0
 40
1.0
  0
LINE
  5
1855
330
1E
100
AcDbEntity
  8
ﾌﾗﾝｼﾞ
100
AcDbLine
 10
34.55
 20
-18.2
 30
0.0
 11
34.55
 21
-19.8
 31
0.0
  0
LINE
  5
1856
330
1E
100
AcDbEntity
  8
ﾌﾗﾝｼﾞ
100
AcDbLine
 10
34.55
 20
-19.8
 30
0.0
 11
34.34999999999999
 21
-20.0
 31
0.0
  0
LINE
  5
1857
330
1E
100
AcDbEntity
  8
ﾌﾗﾝｼﾞ
100
AcDbLine
 10
34.55
 20
-18.2
 30
0.0
 11
34.34999999999999
 21
-18.0
 31
0.0
  0
LINE
  5
1858
330
1E
100
AcDbEntity
  8
ﾌﾗﾝｼﾞ
100
AcDbLine
 10
24.55
 20
-18.2
 30
0.0
 11
24.55
 21
-19.8
 31
0.0
  0
LINE
  5
185A
102
{ACAD_REACTORS
330
18E1
102
}
330
1E
100
AcDbEntity
  8
ﾌﾗﾝｼﾞ
100
AcDbLine
 10
-1.0
 20
-19.79999999999999
 30
0.0
 11
-1.0
 21
-18.2
 31
0.0
  0
LINE
  5
185B
102
{ACAD_REACTORS
330
18AB
330
18E1
102
}
330
1E
100
AcDbEntity
  8
ﾌﾗﾝｼﾞ
100
AcDbLine
 10
-1.199999999999999
 20
-19.99999999999999
 30
0.0
 11
-10.8
 21
-19.99999999999999
 31
0.0
  0
LINE
  5
185C
102
{ACAD_REACTORS
330
18E1
102
}
330
1E
100
AcDbEntity
  8
ﾌﾗﾝｼﾞ
  6
CENTER2
 62
     1
100
AcDbLine
 10
0.2983438728694789
 20
-18.99999999999999
 30
0.0
 11
-11.97938284874313
 21
-18.99999999999999
 31
0.0
  0
LINE
  5
185D
102
{ACAD_REACTORS
330
18AB
330
18E1
102
}
330
1E
100
AcDbEntity
  8
ﾌﾗﾝｼﾞ
100
AcDbLine
 10
-1.199999999999999
 20
-18.0
 30
0.0
 11
-10.8
 21
-18.0
 31
0.0
  0
LINE
  5
185E
330
1E
100
AcDbEntity
  8
ﾌﾗﾝｼﾞ
100
AcDbLine
 10
24.74999999999999
 20
-20.0
 30
0.0
 11
24.55
 21
-19.8
 31
0.0
  0
LINE
  5
185F
330
1E
100
AcDbEntity
  8
ﾌﾗﾝｼﾞ
100
AcDbLine
 10
24.75
 20
-18.0
 30
0.0
 11
24.55
 21
-18.2
 31
0.0
  0
LINE
  5
1860
102
{ACAD_REACTORS
330
18E1
102
}
330
1E
100
AcDbEntity
  8
ﾌﾗﾝｼﾞ
100
AcDbLine
 10
-1.0
 20
-18.2
 30
0.0
 11
-1.199999999999999
 21
-18.0
 31
0.0
  0
LINE
  5
1861
102
{ACAD_REACTORS
330
18E1
102
}
330
1E
100
AcDbEntity
  8
ﾌﾗﾝｼﾞ
100
AcDbLine
 10
-1.0
 20
-19.79999999999999
 30
0.0
 11
-1.199999999999999
 21
-19.99999999999999
 31
0.0
  0
LINE
  5
1862
102
{ACAD_REACTORS
330
18AB
102
}
330
1E
100
AcDbEntity
  8
ﾌﾗﾝｼﾞ
100
AcDbLine
 10
-11.0
 20
-19.79999999999999
 30
0.0
 11
-11.0
 21
-18.2
 31
0.0
  0
LINE
  5
1863
102
{ACAD_REACTORS
330
18AB
102
}
330
1E
100
AcDbEntity
  8
ﾌﾗﾝｼﾞ
100
AcDbLine
 10
-10.8
 20
-18.0
 30
0.0
 11
-11.0
 21
-18.2
 31
0.0
  0
LINE
  5
1864
102
{ACAD_REACTORS
330
18AB
102
}
330
1E
100
AcDbEntity
  8
ﾌﾗﾝｼﾞ
100
AcDbLine
 10
-10.8
 20
-19.99999999999999
 30
0.0
 11
-11.0
 21
-19.79999999999999
 31
0.0
  0
DIMENSION
  5
1865
330
1E
100
AcDbEntity
  8
0
 62
     5
100
AcDbDimension
  2
*D25
 10
-0.0000000000000001
 20
-43.95677491385305
 30
0.0
 11
-3.534999999999996
 21
-43.95677491385305
 31
0.0
 70
    32
 71
     5
 42
7.069999999999993
  3
Standard
100
AcDbAlignedDimension
 13
-7.069999999999993
 23
-42.0
 33
0.0
 14
0.0
 24
-42.0
 34
0.0
100
AcDbRotatedDimension
  0
LINE
  5
187E
102
{ACAD_REACTORS
330
18CE
102
}
330
1E
100
AcDbEntity
  8
ﾌﾗﾝｼﾞ
100
AcDbLine
 10
-10.84999999999999
 20
-80.0
 30
0.0
 11
-11.04999999999999
 21
-79.8
 31
0.0
  0
LINE
  5
187F
102
{ACAD_REACTORS
330
18CE
102
}
330
1E
100
AcDbEntity
  8
ﾌﾗﾝｼﾞ
100
AcDbLine
 10
-7.119999999999993
 20
-80.0
 30
0.0
 11
-10.84999999999999
 21
-80.0
 31
0.0
  0
LINE
  5
1880
330
1E
100
AcDbEntity
  8
ﾌﾗﾝｼﾞ
  6
CENTER2
 62
     1
100
AcDbLine
 10
-5.890519487936829
 20
-79.0
 30
0.0
 11
-12.02938284874313
 21
-79.0
 31
0.0
  0
LINE
  5
1881
102
{ACAD_REACTORS
330
18CE
102
}
330
1E
100
AcDbEntity
  8
ﾌﾗﾝｼﾞ
100
AcDbLine
 10
-7.119999999999993
 20
-77.99999999999998
 30
0.0
 11
-10.84999999999999
 21
-78.0
 31
0.0
  0
LINE
  5
1882
102
{ACAD_REACTORS
330
18CE
102
}
330
1E
100
AcDbEntity
  8
ﾌﾗﾝｼﾞ
100
AcDbLine
 10
-11.04999999999999
 20
-79.8
 30
0.0
 11
-11.04999999999999
 21
-78.2
 31
0.0
  0
LINE
  5
1883
102
{ACAD_REACTORS
330
18CE
102
}
330
1E
100
AcDbEntity
  8
ﾌﾗﾝｼﾞ
100
AcDbLine
 10
-10.84999999999999
 20
-78.0
 30
0.0
 11
-11.04999999999999
 21
-78.2
 31
0.0
  0
LINE
  5
1886
330
1E
100
AcDbEntity
  8
BASE
  6
CENTER2
 62
     1
100
AcDbLine
 10
-88.92709208601402
 20
-19.0
 30
0.0
 11
-100.0729079139859
 21
-19.0
 31
0.0
  0
CIRCLE
  5
1887
330
1E
100
AcDbEntity
  8
ﾌﾗﾝｼﾞ
 62
     0
100
AcDbCircle
 10
-94.50000000000001
 20
-19.06353049026421
 30
0.0
 40
1.0
  0
DIMENSION
  5
1888
330
1E
100
AcDbEntity
  8
0
 62
     6
100
AcDbDimension
  2
*D26
 10
36.52708603188909
 20
-18.0
 30
0.0
 11
36.5270860318891
 21
-12.20833333333332
 31
0.0
 70
    32
 71
     5
 42
2.000000000000003
  3
Standard
100
AcDbAlignedDimension
 13
34.34999999999999
 23
-20.0
 33
0.0
 14
34.34999999999999
 24
-18.0
 34
0.0
 50
90.0
100
AcDbRotatedDimension
  0
HATCH
  5
18AB
330
1E
100
AcDbEntity
  8
ﾌﾗﾝｼﾞ
 62
     3
100
AcDbHatch
 10
0.0
 20
0.0
 30
0.0
210
0.0
220
0.0
230
1.0
  2
_USER
 70
     0
 71
     1
 91
        2
 92
        7
 72
     0
 73
     1
 93
       12
 10
-10.79999999999999
 20
-19.99999999999999
 10
-11.0
 20
-19.79999999999999
 10
-11.0
 20
-18.2
 10
-10.8
 20
-18.0
 10
-7.119999999999993
 20
-18.0
 10
-7.119999999999993
 20
-12.99999999999999
 10
-17.18999999999998
 20
-13.0
 10
-17.18999999999998
 20
-23.0
 10
-13.55
 20
-23.00000000000001
 10
-11.55000000000001
 20
-25.0
 10
-7.119999999999993
 20
-25.0
 10
-7.119999999999992
 20
-20.0
 97
       11
330
185B
330
1864
330
1862
330
1863
330
185D
330
9F7
330
852
330
A0C
330
9B1
330
628
330
629
 92
        7
 72
     0
 73
     1
 93
        6
 10
-7.119999999999993
 20
-29.0
 10
-11.55
 20
-29.0
 10
-13.55
 20
-31.0
 10
-17.18999999999998
 20
-31.0
 10
-17.18999999999998
 20
-40.99999999999999
 10
-7.119999999999991
 20
-40.99999999999999
 97
        6
330
86
330
95
330
9B2
330
A0C
330
853
330
9F7
 75
     0
 76
     0
 52
45.0
 41
0.5
 77
     0
 78
     1
 53
45.0
 43
0.0
 44
0.0
 45
-0.3535533905932737
 46
0.3535533905932738
 79
     0
 47
0.053605633747633
 98
        2
 10
-10.61510278276136
 20
-22.20939142497462
 10
-11.25865931834016
 20
-34.96753218424106
  0
HATCH
  5
18CE
330
1E
100
AcDbEntity
  8
ﾌﾗﾝｼﾞ
 62
     3
100
AcDbHatch
 10
0.0
 20
0.0
 30
0.0
210
0.0
220
0.0
230
1.0
  2
_USER
 70
     0
 71
     1
 91
        4
 92
        7
 72
     0
 73
     1
 93
       10
 10
-7.119999999999993
 20
-80.0
 10
-10.84999999999998
 20
-80.00000000000001
 10
-11.04999999999999
 20
-79.8
 10
-11.04999999999999
 20
-78.2
 10
-10.84999999999998
 20
-78.0
 10
-7.119999999999992
 20
-78.0
 10
-7.119999999999994
 20
-74.5
 10
-17.11999999999999
 20
-74.50000000000001
 10
-17.11999999999999
 20
-85.0
 10
-7.119999999999992
 20
-85.0
 97
        9
330
187F
330
187E
330
1882
330
1883
330
1881
330
17EA
330
17ED
330
17EF
330
17E5
 92
        7
 72
     0
 73
     1
 93
        8
 10
-17.11999999999999
 20
-73.49999999999998
 10
-22.11999999999999
 20
-73.50000000000001
 10
-22.11999999999999
 20
-74.0
 10
-21.61999999999999
 20
-74.0
 10
-21.61999999999999
 20
-83.0
 10
-20.54999999999999
 20
-82.99999999999998
 10
-18.54999999999999
 20
-85.0
 10
-17.11999999999999
 20
-85.0
 97
        8
330
17F0
330
17EC
330
17F2
330
17F4
330
17DC
330
17D2
330
17E5
330
17EF
 92
        7
 72
     0
 73
     1
 93
        8
 10
-17.11999999999999
 20
-88.99999999999998
 10
-18.54999999999998
 20
-88.99999999999998
 10
-20.55000000000001
 20
-91.00000000000001
 10
-21.61999999999999
 20
-91.0
 10
-21.62
 20
-100.0
 10
-22.11999999999999
 20
-100.0
 10
-22.11999999999999
 20
-100.5
 10
-17.11999999999999
 20
-100.5
 97
        8
330
17E6
330
17D3
330
17D9
330
17F4
330
17F3
330
17F6
330
17F1
330
17EF
 92
        7
 72
     0
 73
     1
 93
        4
 10
-7.119999999999991
 20
-89.0
 10
-17.11999999999999
 20
-89.0
 10
-17.11999999999999
 20
-99.50000000000002
 10
-7.11999999999999
 20
-99.50000000000001
 97
        4
330
17E6
330
17EF
330
17EE
330
17EA
 75
     0
 76
     0
 52
45.0
 41
0.5
 77
     0
 78
     1
 53
45.0
 43
0.0
 44
0.0
 45
-0.3535533905932737
 46
0.3535533905932738
 79
     0
 47
0.0719545473979211
 98
        4
 10
-7.954905913016546
 20
-83.04498565574192
 10
-19.25684732253898
 20
-79.87898585450205
 10
-19.18486084898154
 20
-97.14807727488761
 10
-10.04252588538111
 20
-95.42116779856627
  0
HATCH
  5
18E1
330
1E
100
AcDbEntity
  8
ﾌﾗﾝｼﾞ
 62
     6
100
AcDbHatch
 10
0.0
 20
0.0
 30
0.0
210
0.0
220
0.0
230
1.0
  2
_USER
 70
     0
 71
     1
 91
        3
 92
        7
 72
     0
 73
     1
 93
        4
 10
-0.05
 20
-29.0
 10
-7.069999999999993
 20
-29.0
 10
-7.069999999999992
 20
-42.0
 10
-0.05
 20
-42.00000000000001
 97
        4
330
86
330
1593
330
82
330
1588
 92
        7
 72
     0
 73
     1
 93
        7
 10
-0.05
 20
-25.0
 10
-0.05
 20
-18.99999999999999
 10
-1.0
 20
-18.99999999999999
 10
-1.0
 20
-19.79999999999999
 10
-1.200000000000001
 20
-19.99999999999999
 10
-7.069999999999993
 20
-19.99999999999999
 10
-7.069999999999993
 20
-25.0
 97
        7
330
185C
330
185A
330
1861
330
185B
330
1593
330
629
330
1588
 92
        7
 72
     0
 73
     1
 93
        7
 10
-1.199999999999999
 20
-18.0
 10
-1.0
 20
-18.2
 10
-1.0
 20
-18.99999999999999
 10
-0.05
 20
-18.99999999999999
 10
-0.05
 20
-12.0
 10
-7.069999999999994
 20
-12.0
 10
-7.069999999999993
 20
-18.0
 97
        7
330
81
330
1593
330
185D
330
1860
330
185A
330
185C
330
1588
 75
     0
 76
     0
 52
135.0
 41
0.3
 77
     0
 78
     1
 53
135.0
 43
0.0
 44
0.0
 45
-0.2121320343559642
 46
-0.2121320343559642
 79
     0
 47
0.0589204645012558
 98
        3
 10
-3.242012021730147
 20
-34.1775914542078
 10
-2.122020092578281
 20
-22.98270283989302
 10
-3.124118236161848
 20
-15.97116775500279
  0
HATCH
  5
18FE
330
1E
100
AcDbEntity
  8
ﾌﾗﾝｼﾞ
 62
     6
100
AcDbHatch
 10
0.0
 20
0.0
 30
0.0
210
0.0
220
0.0
230
1.0
  2
_USER
 70
     0
 71
     0
 91
        2
 92
        7
 72
     0
 73
     1
 93
       17
 10
20.0
 20
-24.6
 10
20.6
 20
-24.0
 10
30.0
 20
-24.0
 10
30.5
 20
-24.0
 10
30.49999999999999
 20
-20.0
 10
24.74999999999999
 20
-19.99999999999999
 10
24.55
 20
-19.8
 10
24.55
 20
-18.19999999999999
 10
24.75
 20
-18.0
 10
30.49999999999999
 20
-18.0
 10
30.5
 20
-17.05
 10
-0.05
 20
-17.05
 10
-0.05
 20
-25.0
 10
4.85000000000002
 20
-25.0
 10
5.45
 20
-25.6
 10
5.450000000000001
 20
-26.99999999999999
 10
20.0
 20
-27.0
 97
        0
 92
        7
 72
     0
 73
     1
 93
       11
 10
30.49999999999999
 20
-30.0
 10
30.05
 20
-30.0
 10
20.59999999999999
 20
-30.0
 10
20.0
 20
-29.39999999999999
 10
20.0
 20
-26.99999999999999
 10
5.45
 20
-26.99999999999999
 10
5.45
 20
-28.39999999999999
 10
4.850000000000021
 20
-29.0
 10
-0.05
 20
-29.0
 10
-0.05
 20
-36.95
 10
30.5
 20
-36.95000000000001
 97
        0
 75
     0
 76
     0
 52
135.0
 41
0.3
 77
     0
 78
     1
 53
135.0
 43
0.0
 44
0.0
 45
-0.2121320343559642
 46
-0.2121320343559642
 79
     0
 47
0.1071337701010937
 98
        2
 10
14.94740664252447
 20
-26.8486218522147
 10
15.05458855017866
 20
-31.13397299930437
  0
MTEXT
  5
1905
330
1E
100
AcDbEntity
  8
0
  6
Continuous
 62
     5
100
AcDbMText
 10
100.8651359248141
 20
17.81759979239717
 30
0.0
 40
3.0
 41
0.0
 71
     5
 72
     1
  1
{\fＤＦ平成明朝体W7|b0|i0|c128|p1;\C1;注意＊\fＤＨＰ平成明朝体W3|b0|i0|c128|p2;\H0.6667x;\C252;エンドミルシャンク\H1.5x;Φ４．０}
 73
     1
 44
1.0
  0
LINE
  5
1907
330
1E
100
AcDbEntity
  8
ﾌﾗﾝｼﾞ
100
AcDbLine
 10
34.59999999999999
 20
-17.94999999999999
 30
0.0
 11
30.54999999999999
 21
-17.94999999999999
 31
0.0
  0
LINE
  5
1908
330
1E
100
AcDbEntity
  8
ﾌﾗﾝｼﾞ
100
AcDbLine
 10
34.59999999999999
 20
-20.05
 30
0.0
 11
30.54999999999999
 21
-20.05
 31
0.0
  0
LINE
  5
1909
330
1E
100
AcDbEntity
  8
ﾌﾗﾝｼﾞ
100
AcDbLine
 10
34.59999999999999
 20
-17.94999999999999
 30
0.0
 11
34.59999999999999
 21
-20.05
 31
0.0
  0
LINE
  5
190A
330
1E
100
AcDbEntity
  8
ﾌﾗﾝｼﾞ
100
AcDbLine
 10
-7.119999999999992
 20
-20.04999999999999
 30
0.0
 11
-11.05
 21
-20.04999999999999
 31
0.0
  0
LINE
  5
190C
102
{ACAD_REACTORS
330
18AB
330
18E1
102
}
330
1E
100
AcDbEntity
  8
ﾌﾗﾝｼﾞ
100
AcDbLine
 10
-1.199999999999999
 20
-18.0
 30
0.0
 11
-10.8
 21
-18.0
 31
0.0
  0
LINE
  5
190D
330
1E
100
AcDbEntity
  8
ﾌﾗﾝｼﾞ
100
AcDbLine
 10
-7.119999999999992
 20
-17.94999999999999
 30
0.0
 11
-11.05
 21
-17.94999999999999
 31
0.0
  0
LINE
  5
190E
330
1E
100
AcDbEntity
  8
ﾌﾗﾝｼﾞ
100
AcDbLine
 10
-11.05
 20
-20.04999999999999
 30
0.0
 11
-11.05
 21
-17.94999999999999
 31
0.0
  0
DIMENSION
  5
190F
330
1E
100
AcDbEntity
  8
0
 62
     6
100
AcDbDimension
  2
*D27
 10
34.55
 20
-16.44074272574084
 30
0.0
 11
38.84166666666666
 21
-16.44074272574084
 31
0.0
 70
    32
 71
     5
 42
4.0
  3
Standard
100
AcDbAlignedDimension
 13
30.54999999999999
 23
-18.0
 33
0.0
 14
34.55
 24
-18.2
 34
0.0
100
AcDbRotatedDimension
  0
DIMENSION
  5
191D
330
1E
100
AcDbEntity
  8
0
 62
     6
100
AcDbDimension
  2
*D28
 10
30.5
 20
-53.41909846545971
 30
0.0
 11
16.5
 21
-53.41909846545971
 31
0.0
 70
    32
 71
     5
 42
28.0
  3
Standard
100
AcDbAlignedDimension
 13
2.5
 23
-50.0
 33
0.0
 14
30.5
 24
-50.0
 34
0.0
100
AcDbRotatedDimension
  0
DIMENSION
  5
192B
330
1E
100
AcDbEntity
  8
0
 62
     5
100
AcDbDimension
  2
*D29
 10
-103.3299018270282
 20
-31.69391454172781
 30
0.0
 11
-76.40959299425947
 21
-17.38326516268881
 31
0.0
 70
   163
 71
     5
 42
20.00000000000001
  3
Standard
100
AcDbDiametricDimension
 15
-85.67009817297178
 25
-22.3060854582722
 35
0.0
 40
0.0
1001
ACAD
1000
DSTYLE
1002
{
1070
   288
1070
     1
1002
}
  0
DIMENSION
  5
1936
330
1E
100
AcDbEntity
  8
0
 62
     5
100
AcDbDimension
  2
*D30
 10
-104.9988518012604
 20
-37.71326798204774
 30
0.0
 11
-77.67373115185137
 21
-9.830091259450405
 31
0.0
 70
   163
 71
     5
 42
30.00000000000001
  3
Standard
100
AcDbDiametricDimension
 15
-84.00114819873948
 25
-16.28673201795227
 35
0.0
 40
0.0
1001
ACAD
1000
DSTYLE
1002
{
1070
   288
1070
     1
1002
}
  0
DIMENSION
  5
194A
330
1E
100
AcDbEntity
  8
0
 62
     5
100
AcDbDimension
  2
*D31
 10
-29.60474813492726
 20
-74.0
 30
0.0
 11
-29.60474813492725
 21
-87.0
 31
0.0
 70
    32
 71
     5
 42
26.0
  3
Standard
100
AcDbAlignedDimension
 13
-26.61999999999999
 23
-100.0
 33
0.0
 14
-26.61999999999999
 24
-74.0
 34
0.0
 50
90.0
100
AcDbRotatedDimension
  0
DIMENSION
  5
1958
330
1E
100
AcDbEntity
  8
0
 62
     5
100
AcDbDimension
  2
*D32
 10
-21.61999999999999
 20
-71.09254789564369
 30
0.0
 11
-17.32833333333332
 21
-71.09254789564369
 31
0.0
 70
    32
 71
     5
 42
4.999999999999992
  3
Standard
100
AcDbAlignedDimension
 13
-26.61999999999998
 23
-74.0
 33
0.0
 14
-21.61999999999999
 24
-74.0
 34
0.0
100
AcDbRotatedDimension
  0
DIMENSION
  5
1985
330
1E
100
AcDbEntity
  8
0
 62
     5
100
AcDbDimension
  2
*D33
 10
-97.50861435745086
 20
-43.36404862561148
 30
0.0
 11
-86.19497078412008
 21
-53.27632410638495
 31
0.0
 70
    35
 71
     5
 42
8.0
  3
Standard
100
AcDbDiametricDimension
 15
-91.49138564254917
 25
-48.6359513743885
 35
0.0
 40
0.0
1001
ACAD
1000
DSTYLE
1002
{
1070
   288
1070
     1
1002
}
  0
ENDSEC
  0
SECTION
  2
OBJECTS
  0
DICTIONARY
  5
C
330
0
100
AcDbDictionary
281
     1
  3
ACAD_GROUP
350
D
  3
ACAD_LAYOUT
350
19
  3
ACAD_MLINESTYLE
350
16
  3
ACAD_PLOTSETTINGS
350
18
  3
ACAD_PLOTSTYLENAME
350
E
  3
AcDbVariableDictionary
350
3D8
  0
DICTIONARY
  5
D
102
{ACAD_REACTORS
330
C
102
}
330
C
100
AcDbDictionary
281
     1
  0
DICTIONARY
  5
19
102
{ACAD_REACTORS
330
C
102
}
330
C
100
AcDbDictionary
281
     1
  3
Model
350
21
  3
ﾚｲｱｳﾄ1
350
1D
  0
DICTIONARY
  5
16
102
{ACAD_REACTORS
330
C
102
}
330
C
100
AcDbDictionary
281
     1
  3
Standard
350
17
  0
DICTIONARY
  5
18
102
{ACAD_REACTORS
330
C
102
}
330
C
100
AcDbDictionary
281
     1
  0
ACDBDICTIONARYWDFLT
  5
E
102
{ACAD_REACTORS
330
C
102
}
330
C
100
AcDbDictionary
281
     1
  3
Normal
350
F
100
AcDbDictionaryWithDefault
340
F
  0
DICTIONARY
  5
3D8
102
{ACAD_REACTORS
330
C
102
}
330
C
100
AcDbDictionary
281
     1
  3
SORTENTS
350
3D9
  0
LAYOUT
  5
21
102
{ACAD_REACTORS
330
19
102
}
330
19
100
AcDbPlotSettings
  1

  2
Brother MFC-5890CN Printer
  4
A4
  6

 40
3.174999952316284
 41
3.174999952316284
 42
3.175003051757812
 43
3.17498779296875
 44
210.0
 45
297.0
 46
25.0
 47
20.0
 48
0.0
 49
0.0
140
0.0
141
0.0
142
1.0
143
1.0
 70
 11952
 72
     1
 73
     1
 74
     1
  7

 75
    16
147
1.0
148
127.5120755591808
149
116.483200423571
100
AcDbLayout
  1
Model
 70
     1
 71
     0
 10
0.0
 20
0.0
 11
12.0
 21
9.0
 12
0.0
 22
0.0
 32
0.0
 14
0.0
 24
0.0
 34
0.0
 15
0.0
 25
0.0
 35
0.0
146
0.0
 13
0.0
 23
0.0
 33
0.0
 16
1.0
 26
0.0
 36
0.0
 17
0.0
 27
1.0
 37
0.0
 76
     0
330
1E
  0
LAYOUT
  5
1D
102
{ACAD_REACTORS
330
19
102
}
330
19
100
AcDbPlotSettings
  1

  2
Canon BJ F870 (コピー 1)
  4

  6

 40
0.0
 41
0.0
 42
0.0
 43
0.0
 44
0.0
 45
0.0
 46
0.0
 47
0.0
 48
0.0
 49
0.0
140
0.0
141
0.0
142
1.0
143
1.0
 70
   688
 72
     0
 73
     0
 74
     5
  7

 75
    16
147
1.0
148
0.0
149
0.0
100
AcDbLayout
  1
ﾚｲｱｳﾄ1
 70
     1
 71
     1
 10
0.0
 20
0.0
 11
12.0
 21
9.0
 12
0.0
 22
0.0
 32
0.0
 14
1.000000000000000E+20
 24
1.000000000000000E+20
 34
1.000000000000000E+20
 15
-1.000000000000000E+20
 25
-1.000000000000000E+20
 35
-1.000000000000000E+20
146
0.0
 13
0.0
 23
0.0
 33
0.0
 16
1.0
 26
0.0
 36
0.0
 17
0.0
 27
1.0
 37
0.0
 76
     0
330
1A
  0
MLINESTYLE
  5
17
102
{ACAD_REACTORS
330
16
102
}
330
16
100
AcDbMlineStyle
  2
STANDARD
 70
     0
  3

 62
   256
 51
90.0
 52
90.0
 71
     2
 49
0.5
 62
   256
  6
BYLAYER
 49
-0.5
 62
   256
  6
BYLAYER
  0
ACDBPLACEHOLDER
  5
F
102
{ACAD_REACTORS
330
E
102
}
330
E
  0
DICTIONARYVAR
  5
3D9
102
{ACAD_REACTORS
330
3D8
102
}
330
3D8
100
DictionaryVariables
280
     0
  1
96
  0
ENDSEC
  0
EOF
